<?xml version="1.0" standalone="no"?>
<!DOCTYPE svg PUBLIC "-//W3C//DTD SVG 1.1//EN" "http://www.w3.org/Graphics/SVG/1.1/DTD/svg11.dtd">
<svg xmlns="http://www.w3.org/2000/svg">
<metadata>Generated by Fontastic.me</metadata>
<defs>
<font id="communication-48-x-48" horiz-adv-x="512">
<font-face font-family="communication-48-x-48" units-per-em="512" ascent="480" descent="-32"/>
<missing-glyph horiz-adv-x="512" />

<glyph unicode="&#97;" d="M256 10c-135 0-246 111-246 246 0 135 111 246 246 246 135 0 246-111 246-246 0-135-111-246-246-246z m0 471c-124 0-225-101-225-225 0-124 101-225 225-225 124 0 225 101 225 225 0 124-101 225-225 225z m0-471c-80 0-142 107-142 246 0 139 62 246 142 246 80 0 142-107 142-246 0-139-62-246-142-246z m0 471c-66 0-121-101-121-225 0-124 55-225 121-225 66 0 121 101 121 225 0 124-55 225-121 225z m-11 20l22 0 0-490-22 0z m-196-355l414 0 0-21-414 0z m-38 121l490 0 0-22-490 0z m38 120l414 0 0-21-414 0z"/>
<glyph unicode="&#98;" d="M378 6l-122 267-122-267-19 9 131 288c3 4 6 6 10 6 4 0 7-2 10-6l131-288z m-1 5l-207 95c-4 1-6 5-7 8 0 4 1 8 4 10l124 89 13-17-109-79 190-87z m-242 0l-8 19 190 87-109 79 13 17 124-89c3-2 4-7 4-10 0-4-3-7-7-8z m121 280c-21 0-39 18-39 40 0 21 18 39 39 39 21 0 39-18 39-39 0-22-18-40-39-40z m0 58c-10 0-18-9-18-18 0-10 8-18 18-18 10 0 18 8 18 18 0 9-8 18-18 18z m63-81l-15 15c26 25 26 69 0 95-26 25-69 25-95 0-26-26-26-70 0-95l-15-15c-34 34-34 90 0 125 34 34 91 34 125 0 34-35 34-91 0-125z m32-32l-15 15c21 21 33 49 33 80 0 31-12 58-33 80-44 43-116 43-160 0-21-22-33-49-33-80 0-31 12-59 33-80l-15-15c-52 52-52 137 0 190 52 52 138 52 190 0 52-53 52-138 0-190z m-223-34c-34 34-53 80-53 129 0 48 19 94 53 128 34 34 80 53 128 53 48 0 94-19 129-53 70-71 70-187 0-257l-15 15c63 62 63 164 0 227-31 31-70 47-114 47-44 0-83-17-113-47-31-31-47-71-47-114 0-43 17-84 47-113z"/>
<glyph unicode="&#99;" d="M395 6l-139 307-139-307-19 9 148 327c3 5 6 7 10 7 4 0 7-2 10-7l148-327z m-1 7l-235 108c-3 1-5 5-6 8 0 4 1 8 4 10l140 100 12-17-124-90 217-100z m-276 0l-8 19 217 100-124 90 12 17 140-100c3-2 4-7 4-10 0-3-3-7-6-8z m138 317c-25 0-44 19-44 43 0 25 19 44 44 44 25 0 44-19 44-44 0-24-19-43-44-43z m0 66c-13 0-22-10-22-23 0-12 9-22 22-22 13 0 22 10 22 22 0 13-9 23-22 23z m64-86l-15 15c13 13 20 30 20 49 0 20-7 37-20 49l15 15c17-17 27-39 27-64 0-24-10-47-27-64z m-128-1c-17 17-27 40-27 64 0 25 10 47 27 64l15-15c-13-12-20-29-20-49 0-19 7-36 20-49z m162-34l-15 15c46 46 46 122 0 168l15 15c55-55 55-143 0-198z m-196 0c-55 55-55 143 0 198l15-15c-46-46-46-122 0-168z m233-36l-14 15c66 66 66 174 0 240l14 15c75-75 75-195 0-270z m-270 0c-75 75-75 195 0 270l14-15c-66-66-66-174 0-240z"/>
<glyph unicode="&#100;" d="M282 0l-231 0c-4 0-8 2-9 6-1 5-1 9 2 12l115 115c4 5 11 5 15 0l115-115c3-3 4-7 2-12-1-4-5-6-9-6z m-205 21l179 0-90 90z m271 94l-271 0c-7 0-11 4-11 11l0 272c0 4 2 8 7 9 4 3 8 2 11-2l271-272c3-3 4-7 2-11-1-5-5-7-9-7z m-261 22l235 0-235 235z m164 77c-2 0-4 0-6 1-5 4-7 10-4 14l62 120-120-61c-5-3-11-1-13 4-4 6-1 12 4 14l149 77c4 2 10 1 13-2 3-3 4-9 2-13l-77-149c-3-2-6-5-10-5z m102 159c0-15-12-26-27-26-15 0-26 11-26 26 0 15 11 27 26 27 15 0 27-12 27-27z m108-22c-7 0-11 4-11 11 0 71-57 129-129 129-6 0-11 4-11 10 0 7 5 11 11 11 83 0 150-67 150-150 0-7-4-11-10-11z m-47 3c-7 0-11 4-11 11 0 44-36 80-80 80-6 0-10 4-10 10 0 7 4 11 10 11 56 0 102-46 102-101 0-7-5-11-11-11z"/>
<glyph unicode="&#101;" d="M512 74l-512 0 0 363 512 0z m-491 21l470 0 0 321-470 0z m235 71l-253 253 15 15 238-238 238 238 15-15z m-81 98l15-15-172-172-15 15z m163 1l172-172-15-15-172 172z"/>
<glyph unicode="&#102;" d="M394 0l-276 0c-10 0-21 11-21 21l0 470c0 10 11 21 21 21l275 0c11 0 21-10 21-21l0-465c1-1 1-4 1-5 0-11-10-21-21-21z m-276 491l0-470 275 0 0 470z m159-437c0-11-9-21-21-21-12 0-21 10-21 21 0 12 9 22 21 22 12 0 21-10 21-22z m85-10l-42 0c-6 0-11 4-11 10 0 7 5 11 11 11l42 0c6 0 10-4 10-11 0-6-4-10-10-10z m-170 0l-42 0c-6 0-10 4-10 10 0 7 4 11 10 11l42 0c6 0 11-4 11-11 0-6-5-10-11-10z m93 410l-58 0c-6 0-10 5-10 11 0 6 4 11 10 11l58 0c6 0 10-5 10-11 0-6-4-11-10-11z m117-34l-292 0c-7 0-11 5-11 11 0 6 4 11 11 11l292 0c7 0 11-5 11-11 0-6-4-11-11-11z m0-337l-292 0c-7 0-11 4-11 11 0 6 4 11 11 11l292 0c7 0 11-5 11-11 0-7-4-11-11-11z"/>
<glyph unicode="&#103;" d="M385 0l-258 0c-29 0-52 23-52 52l0 408c0 29 23 52 52 52l258 0c29 0 52-23 52-52l0-408c0-29-23-52-52-52z m-258 491c-18 0-31-13-31-31l0-408c0-18 13-31 31-31l258 0c18 0 31 13 31 31l0 408c0 18-13 31-31 31z m267-203l-267 0 0 165 267 0z m-246 21l224 0 0 123-224 0z m-9-56l51 0 0-22-51 0z m91 0l52 0 0-22-52 0z m92 0l51 0 0-22-51 0z m-183-58l51 0 0-21-51 0z m91 0l52 0 0-21-52 0z m92 0l51 0 0-21-51 0z m-183-57l51 0 0-22-51 0z m91 0l52 0 0-22-52 0z m92 0l51 0 0-22-51 0z m-183-58l51 0 0-21-51 0z m91 0l52 0 0-21-52 0z m92 0l51 0 0-21-51 0z"/>
<glyph unicode="&#104;" d="M352 11l-21 0 0 113 114 0 0-22-93 0z m-6-11l-289 0 0 512 398 0 0-403z m-268 21l259 0 97 96 0 374-356 0z m48 408l260 0 0-22-260 0z m0-60l260 0 0-21-260 0z m0-60l260 0 0-21-260 0z m0-59l260 0 0-22-260 0z m0-60l260 0 0-21-260 0z"/>
<glyph unicode="&#105;" d="M512 47l-21 0 0 227c0 120-106 217-235 217-129 0-235-97-235-217l0-227-21 0 0 227c0 131 115 238 256 238 141 0 256-107 256-238z m-400-48l-11 0c-37 1-72 14-97 37l-4 3 0 157 3 3c26 24 60 38 98 38l11 0z m-91 50c18-15 43-24 70-28l0 194c-27-2-52-11-70-27z m379-49l0 237 11 0c37-1 72-14 97-38l3-3 0-157-3-3c-25-22-60-36-97-37z m21 214l0-193c27 4 52 13 70 28l0 138c-18 16-43 25-70 27z"/>
<glyph unicode="&#106;" d="M242 145c-8 0-17 3-24 10l-63 63c-13 12-13 34 0 48l103 103c14 13 36 12 48 0l63-63c13-13 13-34 0-48l-103-103c-7-7-15-10-24-10z m41 212c-4 0-8-1-10-3l-103-103c-5-6-5-14 0-18l63-63c4-5 13-5 18 0l103 103c4 5 4 14 0 18l-63 63c-2 2-5 3-8 3z m121-58c-3 0-5 1-7 3l-95 95c-3 3-4 6-2 10l30 98c1 3 4 6 7 7 3 1 8 0 10-3l162-162c2-2 3-7 3-10-1-3-3-6-7-7l-98-31c-1 0-2 0-3 0z m-83 108l85-85 74 23-135 136z m-23-290c-4 0-6 1-8 4-4 4-4 10 0 14l66 67c5 4 11 4 15 0 4-5 4-11 0-15l-66-66c-2-3-4-4-7-4z m38-39c-3 0-5 1-7 3-5 4-5 11 0 15l67 67c4 4 10 4 15 0 4-4 4-10 0-15l-68-67c-2-2-4-3-7-3z m39-39c-3 0-5 2-7 4-4 4-4 10 0 15l66 66c4 4 11 4 15 0 4-5 4-11 0-15l-66-66c-2-2-4-4-8-4z m40-39c-3 0-5 1-8 3-4 4-4 11 0 15l67 66c4 5 10 5 15 0 4-4 4-10 0-15l-67-66c-2-2-4-3-7-3z m-404 404c-4 0-6 1-8 3-4 5-4 11 0 15l66 67c5 4 11 4 15 0 5-5 5-11 0-15l-66-67c-2-2-4-3-7-3z m39-39c-3 0-5 1-7 3-5 4-5 11 0 15l66 66c4 4 10 4 15 0 4-4 4-11 0-15l-66-66c-3-2-5-3-8-3z m39-40c-4 0-6 1-8 4-4 4-4 10 0 14l67 68c5 4 11 4 15 0 4-5 4-11 0-15l-67-67c-2-3-4-4-7-4z m39-38c-3 0-5 1-7 3-5 4-5 11 0 15l66 66c4 4 10 4 15 0 4-4 4-10 0-15l-67-66c-2-2-4-3-7-3z"/>
<glyph unicode="&#107;" d="M256-5l-9 9c-7 9-182 214-182 317 0 106 85 191 191 191 106 0 191-85 191-191 0-103-175-308-182-318z m0 496c-94 0-170-76-170-170 0-83 135-252 170-293 35 41 170 210 170 293 0 94-76 170-170 170z m0-281c-64 0-115 51-115 115 0 64 51 116 115 116 64 0 115-52 115-116 0-64-51-115-115-115z m0 209c-52 0-94-41-94-94 0-52 42-94 94-94 52 0 94 42 94 94 0 53-42 94-94 94z"/>
<glyph unicode="&#108;" d="M320 0l-128 0 0 157-87 0 151 149 151-149-87 0z m-107 21l86 0 0 157 57 0-100 98-100-98 57 0z m206 161l-4 22c44 8 76 48 76 93 0 53-43 96-95 96l-94 0 0 19c0 43-35 79-79 79-44 0-79-36-79-79l0-19-28 0c-52 0-95-43-95-96 0-45 31-85 75-93l-4-22c-54 11-92 59-92 115 0 65 52 117 116 117l7 0c1 54 46 98 100 98 54 0 99-44 100-98l73 0c64 0 116-52 116-117 0-56-39-104-93-115z"/>
<glyph unicode="&#109;" d="M256-4l-151 150 87 0 0 156 128 0 0-156 87 0z m-100 129l100-99 100 99-57 0 0 156-86 0 0-156z m240 55l-41 0 0 22 41 0c52 0 95 42 95 96 0 53-43 96-95 96l-94 0 0 19c0 44-35 79-79 79-44 0-79-35-79-79l0-19-28 0c-52 0-95-43-95-96 0-54 43-96 95-96l34 0 0-22-34 0c-64 0-116 53-116 118 0 65 52 117 116 117l7 0c1 54 46 98 100 98 54 0 99-44 100-98l73 0c64 0 116-52 116-117 0-65-52-118-116-118z"/>
<glyph unicode="&#110;" d="M426 339c-48 0-87 39-87 87 0 48 39 86 87 86 48 0 86-38 86-86 0-48-38-87-86-87z m0 152c-37 0-65-29-65-65 0-37 28-65 65-65 36 0 65 28 65 65 0 36-29 65-65 65z m0-491c-48 0-87 38-87 86 0 48 39 87 87 87 48 0 86-39 86-87 0-48-38-86-86-86z m0 151c-37 0-65-28-65-65 0-36 28-65 65-65 36 0 65 29 65 65 0 37-29 65-65 65z m-340 19c-48 0-86 38-86 86 0 48 38 86 86 86 48 0 87-38 87-86 0-48-39-86-87-86z m0 151c-36 0-65-29-65-65 0-36 29-65 65-65 37 0 65 29 65 65 0 36-28 65-65 65z m270 82l9-20-208-97-9 20z m-199-176l208-97-9-20-208 97z"/>
<glyph unicode="&#111;" d="M512 13l-512 0 0 364 130 0 0-22-109 0 0-321 470 0 0 321-111 0 0 22 132 0z m-256 93l-253 252 15 15 238-238 238 238 15-15z m-81 96l15-15-172-172-15 15z m162 0l172-172-15-15-172 172z m-113 96c-15 0-28 6-36 17-11 15-14 32-9 50 8 28 34 52 57 62 15 6 31 10 47 10 11 0 19-2 20-2l8-2-11-76c-1-3-2-7-6-11-13-29-42-48-70-48z m59 118c-9 0-23-1-39-9-17-7-39-27-45-48-3-11-1-21 6-32 5-7 13-8 19-8 17 0 41 13 52 36l1 1c1 2 2 5 4 7l7 53c-2 0-4 0-5 0z m-33-182c-20 0-41 4-59 13-41 21-64 57-64 102 0 119 90 151 136 151 39 0 74-15 96-41 15-18 32-52 24-103-6-38-24-52-37-57-16-6-33-1-47 11-16 14-23 35-18 54l21-5c-3-13 4-25 12-33 8-7 18-9 26-7 12 4 19 18 24 40 5 35-1 63-18 85-19 21-47 34-80 34-40 0-116-27-116-130 0-50 33-73 53-82 33-16 73-15 96 2l12-17c-17-11-38-17-61-17z"/>
<glyph unicode="&#112;" d="M422 0l-332 0c-26 0-48 22-48 48l0 416c0 26 22 48 48 48l333 0c26 0 48-22 48-48l0-416c-1-27-23-48-49-48z m-332 491c-15 0-27-12-27-27l0-416c0-15 12-27 27-27l332 0c14 0 27 13 28 28l0 415c0 15-12 27-27 27z m338-395l-343 0 0 366 343 0z m-321 21l299 0 0 324-299 0z m114-48l70 0 0-21-70 0z"/>
<glyph unicode="&#113;" d="M390 0l-268 0c-26 0-47 21-47 48l0 416c0 27 21 48 47 48l267 0c27 0 48-21 48-48l0-416c0-27-21-48-47-48z m-268 491c-14 0-26-12-26-27l0-416c0-15 12-27 26-27l268 0c14 0 26 12 26 27l0 416c0 15-12 27-27 27z m267-395l-265 0 0 366 265 0z m-244 21l223 0 0 324-223 0z m76-48l70 0 0-21-70 0z"/>
<glyph unicode="&#114;" d="M143 0c-3 0-5 1-8 3l-132 130c-3 4-4 8-2 12 2 4 5 6 10 6l66 0 0 153c0 6 4 11 10 11l112 0c7 0 11-5 11-11l0-153 66 0c5 0 9-2 10-6 1-4 1-8-2-12l-134-130c-2-2-4-3-7-3z m-107 130l107-104 107 104-51 0c-6 0-10 4-10 11l0 152-91 0 0-152c0-7-4-11-11-11z m389 67l-112 0c-7 0-11 5-11 11l0 153-66 0c-5 0-9 2-10 6-2 4-1 8 2 12l134 130c4 4 10 4 15 0l132-130c3-4 4-8 2-12-2-4-5-6-10-6l-66 0 0-153c0-6-4-11-10-11z m-102 22l91 0 0 152c0 7 4 11 11 11l51 0-107 104-107-104 51 0c6 0 10-4 10-11z"/>
<glyph unicode="&#115;" d="M512 0l-512 0 0 512 512 0z m-491 21l470 0 0 470-470 0z m82 319l0 87 12 0 28-44c6-10 12-19 16-28-1 12-1 23-1 35l0 37 11 0 0-87-12 0-27 44c-6 10-12 19-16 29 1-11 1-22 1-35l0-38z m130 41l-34 0 0-31 38 0 0-10-48 0 0 87 46 0 0-10-36 0 0-28 34 0c0 0 0-8 0-8z m34-41l-23 87 12 0 11-44c2-11 5-21 6-30 1 9 4 19 8 30l10 44 12 0 11-44c2-11 4-20 6-30 2 10 4 19 6 30l12 44 12 0-25-87-11 0-11 45c-3 11-4 19-5 28-1-9-4-17-7-28l-14-45z m91 14c6-3 13-5 21-5 11 0 18 6 18 15 0 8-4 13-16 17-14 5-23 13-23 24 0 14 11 24 28 24 9 0 15-2 19-4l-3-10c-3 1-8 4-16 4-12 0-16-7-16-13 0-8 5-11 17-17 15-5 23-12 23-25 0-13-10-25-30-25-9 0-17 2-23 6z m-304-66l404 0 0-21-404 0z m0-52l404 0 0-22-404 0z m0-49l174 0 0-22-174 0z m230 0l174 0 0-22-174 0z m-230-49l174 0 0-22-174 0z m230 0l174 0 0-22-174 0z m-230-49l174 0 0-22-174 0z m230 0l174 0 0-22-174 0z"/>
<glyph unicode="&#116;" d="M217 287c-36 0-69 14-94 37-25 25-39 58-39 92 0 34 13 66 38 91 2 3 5 5 9 5 3 0 6-1 8-3l170-168c2-2 4-4 4-7 0-3-2-7-4-9-24-24-57-38-92-38z m-86 199c-16-20-25-44-25-70 0-29 11-55 32-76 21-20 49-32 79-32 25 0 51 9 70 25z m54-289l-174 0c-5 0-8 2-10 6-2 3-1 7 1 10l87 119c2 3 5 4 8 4 3 0 6-1 9-4l87-119c2-3 3-7 1-10-2-4-5-6-9-6z m-153 22l132 0-66 89z m188 191c-3 0-6 1-8 3-4 4-4 10 0 15l82 81c5 4 11 4 15 0 5-4 5-11 0-15l-82-81c-2-2-4-3-7-3z m257-365l-182 0c-20 0-35 15-35 35l0 144c0 20 15 35 35 35l182 0c20 0 35-15 35-35l0-144c0-20-15-35-35-35z m-182 193c-8 0-13-5-13-14l0-144c0-9 5-14 13-14l182 0c8 0 14 5 14 14l0 144c0 9-6 14-14 14z m91-238c-6 0-11 4-11 11l0 43c0 7 5 11 11 11 7 0 11-4 11-11l0-43c0-7-4-11-11-11z m82 0l-164 0c-6 0-11 4-11 11 0 6 5 10 11 10l164 0c7 0 11-4 11-10 0-7-4-11-11-11z m-248 93l-115 0c-7 0-11 4-11 10l0 72c0 6 4 11 11 11 6 0 10-5 10-11l0-61 105 0c6 0 10-4 10-11 0-6-4-10-10-10z m189 184c-7 0-11 5-11 11l0 109-117 0c-7 0-11 4-11 10 0 7 4 11 11 11l128 0c6 0 10-4 10-11l0-119c0-6-4-11-10-11z"/>
<glyph unicode="&#117;" d="M256 115c-53 0-97 44-97 97l0 203c0 53 44 97 97 97 53 0 97-44 97-97l0-203c0-53-44-97-97-97z m0 376c-42 0-76-34-76-76l0-203c0-41 34-75 76-75 42 0 76 34 76 75l0 203c0 42-34 76-76 76z m0-421c-77 0-140 63-140 140l0 125 22 0 0-125c0-65 53-118 118-118 65 0 118 53 118 118l0 125 22 0 0-125c0-77-63-140-140-140z m-86 254l172 0 0-21-172 0z m75-243l22 0 0-70-22 0z m-56-60l134 0 0-21-134 0z"/>
<glyph unicode="&#118;" d="M257 1c-72 0-143 31-193 89l16 13c71-82 189-104 286-54 96 49 145 157 119 262l21 6c27-115-26-233-131-286-38-20-78-30-118-30z m-252 201c-23 113 31 228 133 281 100 52 225 32 304-50l-15-15c-73 76-187 94-279 46-94-49-144-155-121-258z m445 202l-94 0 0 22 73 0 4 75 21 0z m-385-384l-21 2 6 96 92 1 0-21-73-1z"/>
<glyph unicode="&#119;" d="M464 0l-218 0c-25 0-48 22-48 48l0 134 22 0 0-134c0-15 11-27 26-27l218 0c15 0 27 12 27 27l0 416c0 15-12 27-27 27l-218 0c-15 0-26-12-26-27l0-89-22 0 0 89c0 26 23 48 48 48l218 0c26 0 48-22 48-48l0-416c0-26-22-48-48-48z m6 96l-230 0 0 129 21 0 0-108 188 0 0 324-188 0 0-109-21 0 0 130 230 0z m-145-27l60 0 0-21-60 0z m-162 50l0 93-163 0 0 134 163 0 0 92 52-55 103-105z m-142 115l164 0 0-61 103 105-103 107 0-61-164 0z"/>
<glyph unicode="&#120;" d="M464 0l-218 0c-25 0-48 22-48 48l0 171 22 0 0-171c0-15 11-27 26-27l218 0c15 0 27 12 27 27l0 416c0 15-12 27-27 27l-218 0c-15 0-26-12-26-27l0-124-22 0 0 124c0 26 23 48 48 48l218 0c26 0 48-22 48-48l0-416c0-26-22-48-48-48z m6 96l-230 0 0 123 21 0 0-102 188 0 0 324-188 0 0-104-21 0 0 125 230 0z m-145-27l60 0 0-21-60 0z m-175 50l-154 159 154 160 0-92 164 0 0-134-164 0z m-124 159l103-105 0 61 163 0 0 90-163 0 0 61z"/>
<glyph unicode="&#121;" d="M477 112l-442 0c-20 0-35 15-35 35l0 274c0 21 15 36 35 36l443 0c20 0 35-15 35-36l0-274c-1-20-17-35-36-35z m-442 323c-8 0-14-5-14-14l0-274c0-8 6-14 14-14l442 0c8 0 14 7 15 15l0 273c0 9-6 14-14 14z m210-312l22 0 0-57-22 0z m-127-46l276 0 0-22-276 0z"/>
<glyph unicode="&#122;" d="M512 57l-512 0 0 398 512 0z m-491 21l470 0 0 356-470 0z m-3-18l-15 15c33 33 55 82 75 130 5 13 12 26 17 39 6 15 17 33 33 39 31 11 54-26 65-42 25-36 46-67 68-94 9 14 17 28 27 42 10 15 18 29 28 44 9 13 27 41 52 34 10-2 18-11 28-25 39-54 78-111 116-165l-17-12c-37 54-77 111-116 165-9 13-14 16-15 16-11 3-24-18-29-25-9-15-18-30-28-44-9-14-18-29-26-43-4-7-9-12-16-12-8 0-12 5-14 7l-1 1c-24 29-47 61-72 99-11 17-27 39-39 33-7-2-13-11-21-27-5-13-11-26-17-39-25-49-47-100-83-136z m245 225c-28 0-52 23-52 52 0 29 24 52 52 52 29 0 53-23 53-52 0-29-24-52-53-52z m0 83c-17 0-30-14-30-31 0-17 13-31 30-31 18 0 31 14 31 31 0 17-13 31-31 31z"/>
<glyph unicode="&#65;" d="M186 0c-21 0-40 7-55 22l-109 109c-29 30-29 79 0 110l208 207 218-218-207-208c-15-15-34-22-55-22z m44 418l-193-192c-21-22-21-59 0-80l109-109c11-10 25-16 40-16 15 0 28 6 40 16l192 193z m173-173l-158 158 113 113 158-158z m-127 158l128-128 83 83-128 128z m144-22l15-15-36-36-15 15z m-54 53l15-15-35-36-15 16z"/>
<glyph unicode="&#66;" d="M409 176c-30 0-55 25-55 54 0 30 25 55 55 55 29 0 54-25 54-55 0-29-25-54-54-54z m0 87c-19 0-34-14-34-33 0-18 15-33 34-33 18 0 33 15 33 33 0 19-15 33-33 33z m104-162l-209 0 1 12c2 30 18 58 44 76l7 5 7-7c10-13 27-21 44-21 22 0 37 11 46 21l7 6 7-5c26-19 42-47 44-76z m-184 22l161 0c-5 16-13 31-27 43-16-12-34-20-53-20-21 0-40 8-55 20-14-11-23-27-26-43z m-226 53c-29 0-54 25-54 54 0 30 25 55 54 55 30 0 55-25 55-55 0-29-25-54-55-54z m0 87c-18 0-33-14-33-33 0-18 15-33 33-33 19 0 34 15 34 33 0 19-15 33-34 33z m107-162l-210 0 1 12c2 30 18 58 44 76l8 5 7-7c10-13 27-21 45-21 21 0 36 11 45 21l7 6 7-5c25-19 42-46 45-76z m-185 22l161 0c-5 16-14 32-28 43-16-12-34-20-53-20-21 0-40 8-55 20-13-11-22-27-25-43z m231 280c-30 0-54 25-54 55 0 29 24 54 54 54 30 0 54-25 54-54 0-30-24-55-54-55z m0 88c-18 0-33-15-33-33 0-19 15-33 33-33 18 0 33 14 33 33 0 18-15 33-33 33z m106-164l-211 0 2 12c2 30 18 58 43 76l8 5 6-7c11-13 28-20 45-20 21 0 36 10 46 20l6 6 8-5c25-17 41-45 44-76z m-186 22l161 0c-4 17-14 33-27 44-16-13-34-21-54-21-20 0-39 8-54 21-13-12-23-28-26-44z m80-349c-63 0-122 23-166 67l15 15c40-39 93-61 151-61 58 0 112 23 153 62l14-15c-44-43-104-68-167-68z m215 277c-11 75-62 139-134 168l9 20c77-32 134-102 147-184z m-432-2l-21 3c13 87 73 159 154 189l8-19c-74-29-129-94-141-173z"/>
<glyph unicode="&#67;" d="M512 91l-301 0 0 250 301 0z m-279 21l258 0 0 208-258 0z m45-48l167 0 0-21-167 0z m73 37l21 0 0-48-21 0z m-174-59l-177 0 0 427 177 0z m-156 21l135 0 0 385-135 0z m16 363l103 0 0-22-103 0z m52-220c-24 0-42 19-42 41 0 23 18 42 42 42 23 0 41-18 41-42 0-23-18-41-41-41z m0 62c-11 0-21-10-21-21 0-10 10-20 21-20 10 0 20 10 20 20 0 11-10 21-20 21z m-15-156l29 0 0-21-29 0z"/>
<glyph unicode="&#68;" d="M501 0l-351 0c-6 0-10 4-10 11l0 340c0 6 4 11 10 11l351 0c7 0 11-5 11-11l0-340c0-7-4-11-11-11z m-340 21l330 0 0 319-330 0z m-81-21l-35 0c-26 0-45 19-45 45l0 271c0 25 19 45 45 45l35 0c26 0 45-20 45-45l0-271c0-26-19-45-45-45z m-35 339c-14 0-24-9-24-23l0-271c0-14 10-24 24-24l35 0c14 0 23 10 23 24l0 271c0 14-9 23-23 23z m163-51l236 0 0-21-236 0z m0-64l35 0 0-21-35 0z m67 0l34 0 0-21-34 0z m67 0l35 0 0-21-35 0z m68 0l34 0 0-21-34 0z m-202-51l35 0 0-22-35 0z m67 0l34 0 0-22-34 0z m67 0l35 0 0-22-35 0z m68 0l34 0 0-22-34 0z m-202-50l35 0 0-22-35 0z m67 0l34 0 0-22-34 0z m67 0l35 0 0-22-35 0z m68 0l34 0 0-22-34 0z m-202-52l35 0 0-21-35 0z m67 0l34 0 0-21-34 0z m67 0l35 0 0-21-35 0z m68 0l34 0 0-21-34 0z m34 269l-275 0c-7 0-11 5-11 11l0 150c0 7 4 11 11 11l275 0c6 0 10-4 10-11l0-150c0-6-4-11-10-11z m-265 22l254 0 0 129-254 0z m46 93l156 0 0-21-156 0z m0-44l156 0 0-22-156 0z"/>
<glyph unicode="&#69;" d="M473 0l-434 0c-21 0-39 18-39 39l0 291c0 21 18 39 39 39l435 0c21 0 39-18 39-39l0-291c-1-22-19-39-40-39z m-434 348c-10 0-18-8-18-18l0-291c0-10 8-18 18-18l434 0c9 0 18 9 19 20l0 289c0 10-8 18-18 18z m24-51l379 0 0-22-379 0z m22-53l24 0 0-21-24 0z m52 0l22 0 0-21-22 0z m51 0l22 0 0-21-22 0z m50 0l23 0 0-21-23 0z m51 0l24 0 0-21-24 0z m-204-43l24 0 0-22-24 0z m52 0l22 0 0-22-22 0z m51 0l22 0 0-22-22 0z m50 0l23 0 0-22-23 0z m51 0l24 0 0-22-24 0z m-204-44l24 0 0-22-24 0z m52 0l22 0 0-22-22 0z m51 0l22 0 0-22-22 0z m50 0l23 0 0-22-23 0z m51 0l24 0 0-22-24 0z m-204-44l24 0 0-21-24 0z m52 0l22 0 0-21-22 0z m51 0l22 0 0-21-22 0z m50 0l23 0 0-21-23 0z m51 0l24 0 0-21-24 0z m-204-44l24 0 0-21-24 0z m52 0l22 0 0-21-22 0z m51 0l22 0 0-21-22 0z m50 0l23 0 0-21-23 0z m51 0l24 0 0-21-24 0z m-187 442l304-143-9-19-305 143z m303-349c-25 0-46 20-46 46 0 26 21 46 46 46 26 0 46-20 46-46 0-26-20-46-46-46z m0 71c-14 0-24-11-24-25 0-14 10-25 24-25 14 0 25 11 25 25 0 14-11 25-25 25z m0-176c-25 0-46 20-46 45 0 26 21 46 46 46 26 0 46-20 46-46 0-25-20-45-46-45z m0 70c-14 0-24-11-24-25 0-13 10-24 24-24 14 0 25 11 25 24 0 14-11 25-25 25z"/>
<glyph unicode="&#70;" d="M471 57l-430 0c-23 0-41 18-41 40l0 259c0 23 18 41 41 41l429 0c23 0 41-18 41-41l0-258c1-11-3-21-11-29-7-8-18-12-29-12z m-430 318c-11 0-20-8-20-19l0-259c0-11 9-19 20-19l430 0c6 0 10 2 13 5 3 4 6 9 6 14l0 259c0 11-9 19-20 19z m397 11l-21 0 0 66c0 8-7 15-15 15l-292 0c-8 0-15-7-15-15l0-66-21 0 0 66c0 19 17 37 36 37l292 0c19 0 36-18 36-37z m-63-258c-54 0-99 45-99 99 0 55 45 99 99 99 55 0 100-44 100-99 0-54-45-99-100-99z m0 177c-42 0-77-35-77-78 0-42 35-78 77-78 43 0 78 36 78 78 0 43-35 78-78 78z m-118-154l-218 0 0 152 218 0z m-196 22l175 0 0 109-175 0z m40 65l22 0 0-21-22 0z m73 0l21 0 0-21-21 0z m-51 183l21 0 0-35-21 0z m47 0l21 0 0-35-21 0z m48 0l21 0 0-35-21 0z m47 0l21 0 0-35-21 0z m46 0l22 0 0-35-22 0z m-234-360l21 0 0-28-21 0z m337 0l21 0 0-28-21 0z"/>
<glyph unicode="&#71;" d="M127 170l-127 0 0 156 127 0z m-106 21l85 0 0 114-85 0z m290 164l-126 0 0 157 126 0z m-105 22l84 0 0 114-84 0z m306-377l-127 0 0 157 127 0z m-106 21l85 0 0 114-85 0z m40 130l-21 0 0 86-309 0 0 21 330 0z m-208 215l21 0 0-119-21 0z"/>
<glyph unicode="&#72;" d="M235 114c-104 0-188 84-188 188 0 103 84 188 188 188 103 0 187-85 187-188 0-104-84-188-187-188z m0 354c-92 0-167-74-167-166 0-92 75-167 167-167 91 0 166 75 166 167 0 92-75 166-166 166z m-1-397c-33 0-67 8-100 23l9 19c32-15 65-21 97-20 79 2 150 49 183 118 50 105 6 231-99 281l10 19c114-54 163-193 109-308-37-77-117-129-203-132-2 0-4 0-6 0z m-10 11l21 0 0-71-21 0z m-69-61l159 0 0-21-159 0z"/>
<glyph unicode="&#73;" d="M284 0c-2 0-6 1-8 3l-164 147-101 0c-7 0-11 5-11 11l0 190c0 6 4 11 11 11l101 0 164 147c3 3 8 4 12 2 4-2 6-5 6-10l0-490c0-5-2-9-6-10-1-1-3-1-4-1z m-263 172l95 0c2 0 6-1 8-3l149-135 0 444-149-135c-2-2-5-3-8-3l-95 0z m317-21c-2 0-5 2-7 4-5 4-5 10 0 15 44 47 44 124 0 172-5 5-5 11 0 15 4 5 10 5 15 0 53-56 53-147 0-202-3-2-5-4-8-4z m44-45c-2 0-5 1-8 3-4 4-4 10 0 15 69 73 69 193 0 265-4 5-4 11 0 15 5 5 11 5 15-1 76-81 76-213 0-295-2-1-4-2-7-2z m46-48c-2 0-6 1-8 3-4 4-4 10 0 15 94 99 94 261 0 361-4 5-4 11 0 15 5 5 11 5 15 0 102-109 102-283 0-391-2-2-4-3-7-3z"/>
<glyph unicode="&#74;" d="M364 0c-2 0-5 1-7 2l-213 148-133 0c-7 0-11 5-11 11l0 190c0 6 4 11 11 11l133 0 213 148c4 2 8 2 11 1 3-2 5-5 5-10l0-490c0-5-2-8-5-10-1-1-2-1-4-1z m-343 172l126 0c2 0 4-1 7-2l199-139 0 450-199-139c-3-1-5-2-7-2l-126 0z m172-81c-3 0-5 1-7 3-5 4-5 11 0 15l308 309c4 4 11 4 15 0 4-4 4-11 0-15l-308-309c-3-2-5-3-8-3z m308 0c-3 0-5 1-7 3l-308 309c-5 4-5 11 0 15 4 4 10 4 15 0l308-309c4-4 4-11 0-15-2-2-4-3-8-3z"/>
<glyph unicode="&#75;" d="M349 351l-185 0 0 161 185 0z m-163 21l141 0 0 119-141 0z m-55-372l-131 0 0 115 131 0z m-110 21l89 0 0 73-89 0z m301-21l-131 0 0 115 131 0z m-110 21l89 0 0 73-89 0z m301-21l-131 0 0 115 131 0z m-110 21l89 0 0 73-89 0z m55 84l-22 0 0 106-360 0 0-106-22 0 0 128 404 0z m-213 257l22 0 0-257-22 0z"/>
<glyph unicode="&#76;" d="M470 0l-428 0c-24 0-42 18-42 42l0 294c0 23 18 42 42 42l427 0c24 0 42-19 42-42l0-294c1-11-3-21-11-29-7-9-18-13-30-13z m-428 356c-11 0-21-9-21-20l0-294c0-11 10-21 21-21l428 0c6 0 11 2 14 7 3 3 6 8 6 14l0 295c0 11-10 20-21 20l-427 0z m424-311l-421 0 0 289 421 0z m-400 21l379 0 0 247-379 0z m144 296l-105 91 14 17 93-81 176 121 13-17z"/>
<glyph unicode="&#77;" d="M256 132c-102 0-186 85-186 187 0 102 84 187 186 187 102 0 186-85 186-187 0-102-84-187-186-187z m0 352c-91 0-164-74-164-165 0-91 73-165 164-165 91 0 164 74 164 165 0 91-73 165-164 165z m0-352c-61 0-108 82-108 187 0 104 47 187 108 187 61 0 108-83 108-187 0-105-47-187-108-187z m0 352c-47 0-86-75-86-165 0-90 39-165 86-165 47 0 86 75 86 165 0 90-39 165-86 165z m-11 17l22 0 0-364-22 0z m-142-261l306 0 0-21-306 0z m-28 90l362 0 0-22-362 0z m28 89l306 0 0-21-306 0z m374-362l-442 0c-20 0-35 14-35 35l0 275c0 20 15 35 35 35l56 0 0-21-56 0c-8 0-14-6-14-14l0-275c0-9 6-14 14-14l442 0c8 0 14 5 14 14l0 275c0 8-6 14-14 14l-57 0 0 21 57 0c20 0 35-15 35-35l0-275c0-21-15-35-35-35z m-232 10l22 0 0-56-22 0z m-127-46l276 0 0-21-276 0z"/>
<glyph unicode="&#78;" d="M118 36l-5 0-3 5c-4 6-4 8 19 76 2 6 4 11 5 16-79 20-134 89-134 170 0 95 78 173 173 173l166 0c95 0 172-78 172-174 0-95-78-173-173-173l-88 0-14-10c-106-77-111-81-115-82z m55 418c-83 0-152-68-152-151 0-75 55-139 129-150l13-3-5-11c-3-10-7-18-10-28-4-13-9-28-14-40 24 18 61 45 89 66l19 13 95 0c83 0 152 69 152 152 0 84-68 152-151 152z m-63-193c6-4 17-7 28-7 16 0 24 8 24 20 0 11-6 17-22 24-19 6-31 17-31 34 0 18 15 32 38 32 12 0 22-3 27-6l-4-12c-5 2-12 5-23 5-16 0-22-10-22-18 0-11 7-16 23-23 21-7 30-17 30-35 0-18-14-34-41-34-12 0-24 3-30 8z m189 33c-1 16-2 37-2 52-5-14-9-29-15-45l-22-58-11 0-20 57c-5 17-10 32-14 46 0-15-1-35-2-53l-3-51-15 0 9 119 19 0 20-58c6-15 9-28 12-40 3 12 7 25 13 40l21 58 20 0 8-119-15 0z m39-33c7-4 17-7 28-7 16 0 24 8 24 20 0 11-6 17-22 24-19 6-31 17-31 34 0 18 15 32 38 32 12 0 22-3 27-6l-4-12c-4 2-12 5-23 5-16 0-22-10-22-18 0-11 8-16 24-23 20-7 29-17 29-35 0-18-13-34-41-34-12 0-24 3-30 8z"/>
<glyph unicode="&#79;" d="M38 0c-2 0-5 1-6 2-3 3-5 9-3 13l37 78-13 0c-30 0-53 23-53 51l0 317c0 28 23 51 53 51l406 0c30 0 53-23 53-51l0-318c0-28-23-51-53-51l-286 0-128-90c-2-1-4-2-7-2z m15 491c-18 0-32-14-32-30l0-317c0-16 14-30 32-30l30 0c3 0 8-2 9-5 2-3 2-8 1-11l-27-55 98 68c2 1 5 2 7 2l288 0c18 0 32 14 32 30l0 318c0 16-14 30-32 30z m341-128l-276 0c-6 0-10 4-10 10 0 7 4 11 10 11l276 0c6 0 10-4 10-11 0-6-4-10-10-10z m0-123l-276 0c-6 0-10 4-10 11 0 6 4 10 10 10l276 0c6 0 10-4 10-10 0-7-4-11-10-11z"/>
<glyph unicode="&#80;" d="M38 0c-2 0-5 1-6 2-3 3-5 9-3 13l37 78-13 0c-30 0-53 23-53 51l0 317c0 28 23 51 53 51l406 0c30 0 53-23 53-51l0-318c0-28-23-51-53-51l-286 0-128-90c-2-1-4-2-7-2z m15 491c-18 0-32-14-32-30l0-317c0-16 14-30 32-30l30 0c3 0 8-2 9-5 2-3 2-8 1-11l-27-55 98 68c2 1 5 2 7 2l288 0c18 0 32 14 32 30l0 318c0 16-14 30-32 30z m184-230l-1 8c-2 16 3 34 18 52 14 16 21 28 21 41 0 15-9 25-29 25-10 0-22-3-29-9l-8 19c10 7 27 12 43 12 34 0 50-22 50-44 0-20-12-35-26-52-13-16-18-29-17-44l0-8c0 0-22 0-22 0z m-7-41c0 10 8 19 19 19 10 0 18-8 18-19 0-11-7-18-18-18-12 0-19 7-19 18z"/>
<glyph unicode="&#81;" d="M512 0l-512 0 0 512 454 0c32 0 58-26 58-58z m-491 21l470 0 0 433c0 20-17 37-37 37l-433 0z m388 332l-306 0 0 159 306 0z m-284 21l262 0 0 117-262 0z m131-276c-60 0-108 48-108 107 0 58 48 106 108 106 60 0 108-48 108-106 0-59-48-107-108-107z m0 192c-48 0-86-38-86-85 0-47 38-86 86-86 48 0 86 39 86 86 0 47-38 85-86 85z"/>
<glyph unicode="&#82;" d="M238 30c-127 0-229 101-229 226 0 125 102 226 229 226l0-21c-115 0-208-92-208-205 0-113 93-205 208-205z m0 0c-75 0-132 99-132 226 0 127 57 226 132 226l0-21c-61 0-111-92-111-205 0-113 50-205 111-205z m-11 450l22 0 0-448-22 0z m-180-323l191 0 0-22-191 0z m-36 110l227 0 0-22-227 0z m36 110l191 0 0-22-191 0z m417-368l-189 0c-25 0-48 22-48 48l0 398c0 26 23 48 48 48l189 0c26 0 48-22 48-48l0-400c0-25-21-46-48-46z m-189 473c-15 0-26-12-26-27l0-398c0-15 11-27 26-27l189 0c15 0 27 12 27 25l0 400c0 15-12 27-27 27z m199-381l-209 0 0 354 209 0z m-188 22l166 0 0 311-166 0z m56-47l55 0 0-22-55 0z"/>
<glyph unicode="&#83;" d="M161 0c-27 0-60 16-99 50-2 2-3 4-4 8 0 3 1 6 3 7l95 95c4 4 10 4 15 0 32-28 47-35 51-36 52 3 162 112 165 165 0 4-8 19-36 51-3 5-3 11 0 15l95 95c2 2 5 3 7 3 4 0 6-1 8-3 33-38 50-72 50-100 1-127-222-350-350-350z m-77 60c32-26 58-39 77-39 114 0 330 216 330 330 0 20-14 47-39 77l-79-80c37-44 36-55 34-60-3-63-120-181-184-185 0 0-1 0-1 0-4 0-16 0-58 35z m-11 182c-5 0-9 2-10 7-2 4-1 8 2 11l46 46-108 109c-4 4-4 11 0 15l79 79c4 4 11 4 15 0l109-108 46 46c3 3 7 4 11 2 5-2 7-5 7-10l-1-185c0-5-4-11-11-11z m-47 180l107-108c5-5 5-11 0-15l-35-36 149 2 2 149-36-35c-4-5-10-5-15 0l-108 107z"/>
<glyph unicode="&#84;" d="M256 141c-64 0-115 51-115 115 0 64 51 115 115 115 64 0 115-51 115-115 0-64-51-115-115-115z m0 209c-52 0-94-42-94-94 0-52 42-94 94-94 52 0 94 42 94 94 0 52-42 94-94 94z m0-350c-141 0-256 115-256 256 0 141 115 256 256 256 141 0 256-115 256-256 0-141-115-256-256-256z m0 491c-129 0-235-106-235-235 0-129 106-235 235-235 129 0 235 106 235 235 0 129-106 235-235 235z m0-283c-27 0-48 21-48 48 0 27 21 48 48 48 27 0 48-21 48-48 0-27-21-48-48-48z m0 75c-15 0-27-12-27-27 0-15 12-27 27-27 15 0 27 12 27 27 0 15-12 27-27 27z m56-121l53-127-20-8-53 127z m-136 326l53-128-20-8-52 128z m188-261l127-52-8-20-128 52z m-327 133l128-52-8-20-128 53z"/>
<glyph unicode="&#85;" d="M346 206c-28 0-51 22-51 50 0 28 23 50 51 50 27 0 50-22 50-50 0-28-23-50-50-50z m0 79c-16 0-29-13-29-29 0-16 13-29 29-29 16 0 28 13 28 29 0 16-12 29-28 29z m-77-105c-20 21-32 48-32 77 0 29 12 56 32 77l15-15c-17-17-26-38-26-61 0-22 10-45 26-61z m-42-41c-31 31-49 73-49 117 0 44 17 86 49 117l15-15c-28-27-43-64-43-102 0-38 15-75 43-102z m-44-45c-89 89-89 235 0 323l15-15c-81-81-81-212 0-293z m250-94l-354 0c-44 0-79 35-79 79l0 354c0 44 35 79 79 79l355 0c44 0 78-35 78-79l0-355c0-44-35-78-79-78z m-354 491c-32 0-58-26-58-58l0-354c0-32 26-58 58-58l354 0c32 0 58 25 58 57l0 355c0 32-25 58-57 58z"/>
<glyph unicode="&#86;" d="M256 90c-116 0-211 95-211 211 0 116 95 211 211 211 116 0 211-95 211-211 0-116-95-211-211-211z m0 401c-105 0-190-86-190-190 0-105 85-190 190-190 105 0 190 85 190 190 0 104-85 190-190 190z m0-318c-70 0-128 57-128 128 0 70 58 128 128 128 70 0 128-58 128-128 0-71-58-128-128-128z m0 234c-59 0-107-48-107-106 0-59 48-107 107-107 59 0 107 48 107 107 0 58-48 106-107 106z m91-105l-22 0c0 38-31 69-69 69l0 22c50 0 91-41 91-91z m-85-302l-262 0 0 11c0 128 89 180 92 182l10-18-5 10 5-10c-3-2-75-46-81-154l241 0z m250 0l-262 0 0 21 241 0c-5 109-80 153-81 153l10 18c3-1 92-53 92-181z"/>
<glyph unicode="&#87;" d="M300 0c-28 0-55 14-70 36l-144 209 166 111 143-208c25-38 16-90-23-116l-25-17c-14-10-30-15-47-15z m-184 239l131-191c12-17 31-27 53-27 13 0 25 4 36 11l26 17c27 19 35 58 16 86l-133 191z m19 17c-8 0-17 4-21 12l-38 55c-8 12-5 28 7 35l64 44c11 8 28 3 35-7l39-56c7-12 4-28-8-35l-64-44c-4-3-9-4-14-4z m25 128c-1 0-1 0-2 0l-64-44c-2-1-2-4-1-5l38-56c1-2 4-2 6-1l64 44c2 1 2 4 1 5l-39 56c0 0-1 1-3 1z m-100-3c-17 0-32 8-42 22l-11 15c-6 11-9 24-6 37 2 13 10 25 21 32l25 18c7 4 17 7 27 7 16 0 32-7 41-20l11-15c15-24 9-55-14-70l-23-18c-9-5-19-8-29-8z m14 110c-6 0-11-2-16-5l-24-17c-6-4-11-10-13-18-1-7 0-15 5-21l10-15c6-9 14-13 24-13 5 0 11 2 16 5l23 19c14 8 17 26 9 40l-11 15c-4 5-14 10-23 10z m13-148c-10 0-20 6-25 14l-2 4c-5 6-7 13-6 22 1 8 7 16 13 20l42 28c14 10 34 5 44-9l2-3c4-6 6-14 5-22-1-9-6-16-13-20l-41-28c-6-4-12-6-19-6z m40 71c-2 0-4-1-6-2l-42-28c-2-1-3-3-4-6 0-3 0-5 1-7l2-3c2-3 4-4 7-4 2 0 5 1 7 2l41 28c2 1 4 3 5 6 0 2 0 4-1 6l-3 4c-1 3-4 4-7 4z m261-392c-9 0-19 3-27 11l14 15c9-9 25-3 40 2 21 9 43 19 49 37 9 21-2 45-15 67l-4 6c-14 22-28 46-26 74 2 20 13 38 29 54 12 12 26 20 39 28l8 4 11-18-8-4c-13-8-25-15-35-26-13-12-21-26-22-41-3-20 9-39 22-59l4-7c15-24 29-56 17-85-9-26-35-38-61-49-8-3-22-9-35-9z"/>
<glyph unicode="&#88;" d="M142 19c-27 0-60 16-99 50l-9 8 110 110 7-7c32-27 47-35 52-36 52 3 162 112 165 165 0 5-9 20-36 52l-7 7 110 111 8-9c33-38 50-72 50-100 0-128-223-351-351-351z m-77 60c32-26 58-38 77-38 114 0 329 215 329 329 0 20-13 47-38 77l-80-80c36-44 35-54 34-60-2-62-120-180-183-183l-1 0c-5 0-16 0-58 34z m134 140l-116 115-64-66 2 223 223 2-66-64 115-116z m-116 145l116-115 64 64-115 116 43 42-148-2-2-148z"/>
<glyph unicode="&#89;" d="M379 297l-15 14c29 29 29 77 0 107l15 15c37-38 37-99 0-136z m-136-2c-37 39-37 100 0 137l15-15c-29-29-29-77 0-107z m172-36l-15 15c49 49 49 130 0 180l15 15c58-58 58-152 0-210z m-207 0c-58 59-58 153 0 210l15-15c-49-49-49-130 0-180z m245-39l-15 15c71 71 71 187 0 259l15 15c79-80 79-209 0-289z m-284 0c-79 80-79 209 0 289l14-15c-70-72-70-188 0-259z m248-220l-372 0c-26 0-45 19-45 45l0 106c0 26 19 45 45 45l372 0c26 0 45-19 45-45l0-106c0-26-19-45-45-45z m-372 175c-14 0-24-10-24-24l0-106c0-14 10-24 24-24l372 0c14 0 24 10 24 24l0 106c0 14-10 24-24 24z m256 189l21 0 0-173-21 0z m-230-249l34 0 0-21-34 0z m79 0l33 0 0-21-33 0z"/>
<glyph unicode="&#90;" d="M94 77c-1 0-1 0-2 0-6 1-9 5-9 10l0 414c0 6 3 10 9 11 5 1 9-1 11-6 34-77 109-94 140-97 13-3 27-3 45-3 14 0 29 0 46 1 24 2 51 2 85 2 28 0 50-9 66-27 29-32 27-80 26-88 0-7 2-56-27-88-16-17-37-26-65-26-34 0-62 1-85 1-17 0-32 1-46 1-17 0-31-1-44-2-32-3-107-20-139-97-3-4-7-6-11-6z m11 384l0-333c41 57 106 70 136 74 14 2 28 2 47 2 14 0 29 0 47-1 23-1 51-1 85-1 22 0 38 6 49 19 25 26 22 72 22 72 0 1 0 1 0 2 0 0 4 46-21 73-11 13-28 19-50 19-34 0-61-1-85-1-17 0-33-1-47-1-18 0-33 1-47 2-30 3-95 17-136 74z m-14-257c-50 0-91 37-91 84 0 47 41 84 91 84l0-21c-39 0-70-28-70-63 0-35 31-63 70-63z m207-204c-1 0-4 0-5 1l-70 34c-5 2-8 9-5 14l70 148 19-9-66-139 53-26 129 175 18-12-135-182c-2-3-5-4-8-4z m-23 363l22 0 0-138-22 0z m55 0l21 0 0-138-21 0z"/>
<glyph unicode="&#48;" d="M501 0l-490 0c-7 0-11 4-11 11l0 278c0 6 4 11 11 11 6 0 10-5 10-11l0-268 470 0 0 268c0 6 4 11 10 11 7 0 11-5 11-11l0-278c0-7-4-11-11-11z m-75 227c-7 0-11 4-11 11l0 253-318 0 0-253c0-7-4-11-11-11-6 0-10 4-10 11l0 263c0 7 4 11 10 11l340 0c6 0 10-4 10-11l0-263c0-7-4-11-10-11z m-170-113c-2 0-4 1-6 2l-246 165c-5 3-6 9-3 14 3 6 10 7 15 4l239-160 239 160c5 3 12 2 15-4 3-5 2-11-3-14l-246-165c0-1-2-2-4-2z m245 164c-2 0-4 1-6 3l-76 58c-4 3-5 11-2 15 3 4 11 5 15 2l76-58c4-4 5-11 2-15-2-4-5-5-9-5z m-490 0c-4 0-7 1-9 5-3 4-3 11 2 15l76 58c4 3 12 3 15-2 3-4 3-12-2-15l-76-58c-2-2-4-3-6-3z m293-10c-17-10-35-13-55-13-52 0-95 37-95 98 0 65 44 121 114 121 54 0 90-39 90-91 0-47-26-75-55-75-13 0-25 9-24 28l-1 0c-10-18-25-28-43-28-18 0-34 15-34 40 0 38 30 74 74 74 14 0 26-3 33-6l-10-57c-5-23-1-35 9-35 16 0 34 22 34 58 0 45-27 77-75 77-52 0-95-41-95-104 0-52 34-84 80-84 18 0 34 4 47 11z m-17 135c-3 1-9 2-16 2-28 0-50-25-50-56 0-14 6-24 20-24 18 0 35 24 38 43z"/>
<glyph unicode="&#49;" d="M501 0l-490 0c-7 0-11 4-11 11l0 278c0 6 4 11 11 11 6 0 10-5 10-11l0-268 470 0 0 268c0 6 4 11 10 11 7 0 11-5 11-11l0-278c0-7-4-11-11-11z m-75 227c-7 0-11 4-11 11l0 253-318 0 0-253c0-7-4-11-11-11-6 0-10 4-10 11l0 263c0 7 4 11 10 11l340 0c6 0 10-4 10-11l0-263c0-7-4-11-10-11z m-170-113c-2 0-4 1-6 2l-246 165c-5 3-6 9-3 14 3 6 10 7 15 4l239-160 239 160c5 3 12 2 15-4 3-5 2-11-3-14l-246-165c0-1-2-2-4-2z m245 164c-2 0-4 1-6 3l-76 58c-4 3-5 11-2 15 3 4 11 5 15 2l76-58c4-4 5-11 2-15-2-4-5-5-9-5z m-490 0c-4 0-7 1-9 5-3 4-3 11 2 15l76 58c4 3 12 3 15-2 3-4 3-12-2-15l-76-58c-2-2-4-3-6-3z m145 169l200 0 0-21-200 0z m0-66l200 0 0-22-200 0z m0-67l200 0 0-22-200 0z m0-68l200 0 0-21-200 0z"/>
<glyph unicode="&#50;" d="M186 101c-1 0-1 0-3 0-5 1-8 6-8 11l0 353c0 5 3 10 8 11 6 1 10-2 12-7 23-57 71-76 107-82 9-1 20-2 34-2 11 0 22 0 35 1 18 1 40 1 66 1 21 0 38-6 50-20 26-27 24-73 24-79 0-6 2-51-24-78-12-14-29-20-50-20-26 0-48 1-66 1-14 0-24 1-35 1-14 0-25-1-34-2-30-4-83-20-107-82-1-5-5-7-9-7z m10 322l0-270c31 40 76 54 104 57 10 1 22 2 37 2 11 0 22 0 36-1 18-1 40-1 66-1 15 0 27 4 36 14 17 18 18 51 17 62 0 0 0 1 0 1 0 0 2 42-18 64-9 10-21 14-35 14-26 0-46-1-66-1-14 0-25-1-36-1-15 0-26 1-36 2-29 5-74 18-105 58z m-13-213c-39 0-72 33-72 73 0 39 33 72 72 72l0-21c-27 0-51-24-51-51 0-28 24-52 51-52z m160-173c-2 0-3 0-5 1l-54 29c-6 2-8 9-6 14l55 126 19-9-50-117 37-19 99 147 19-12-105-155c-2-3-5-5-9-5z m-19 310l22 0 0-117-22 0z m42 0l21 0 0-117-21 0z m-275-157c-25 24-39 57-39 93 0 35 14 68 39 92l15-14c-21-21-32-48-32-78 0-30 11-58 32-78z m-37-37c-71 71-71 187 0 259l15-15c-63-63-63-167 0-230z"/>
<glyph unicode="&#51;" d="M277 70l0 108 10 1c21 1 35 4 39 6 22 24 22 115 0 139-3 1-16 5-39 6l-11 0 0 106 13 1c36-3 60-9 73-23 33-32 45-104 45-160 0-57-11-128-45-160-14-13-39-20-73-24z m22 89l0-65c28 3 41 11 48 16 23 22 39 79 39 144 0 65-15 121-39 144-9 8-25 14-48 16l0-64c22-2 37-5 42-11 30-32 30-138 0-170-6-6-25-9-42-10z m211-159l-423 0 0 512 423 0z m-401 21l380 0 0 470-380 0z m-95 417l46 0 0-21-46 0z m123 0l45 0 0-21-45 0z m-123-68l46 0 0-21-46 0z m123 0l45 0 0-21-45 0z m-123-69l46 0 0-22-46 0z m123 0l45 0 0-22-45 0z m-123-68l46 0 0-22-46 0z m123 0l45 0 0-22-45 0z m-123-70l46 0 0-21-46 0z m123 0l45 0 0-21-45 0z m-123-68l46 0 0-21-46 0z m123 0l45 0 0-21-45 0z"/>
<glyph unicode="&#52;" d="M467 0l-428 0c-23 0-41 19-41 42l0 428c0 24 18 42 41 42l428 0c24 0 42-18 42-42l0-427c1-11-3-22-11-30-8-9-19-13-31-13z m-428 491c-10 0-20-10-20-21l0-428c0-11 10-21 20-21l428 0c7 0 12 2 15 7 3 4 5 8 5 15l0 428c0 11-9 21-20 21l-428 0z m39-18l21 0 0-52-21 0z m84 0l21 0 0-52-21 0z m84 0l22 0 0-52-22 0z m85 0l21 0 0-52-21 0z m84 0l21 0 0-52-21 0z m58-473l-428 0c-24 0-42 19-42 42l0 428c-1 11 3 21 11 29 7 9 19 13 31 13l428 0c23 0 41-18 41-42l0-427c0-24-18-43-41-43z m-428 491c-7 0-12-2-16-7-3-3-4-8-4-13l0-429c0-11 9-21 20-21l428 0c11 0 20 10 20 22l0 427c0 11-10 21-20 21z m34-18l21 0 0-52-21 0z m84 0l22 0 0-52-22 0z m84 0l22 0 0-52-22 0z m85 0l21 0 0-52-21 0z m84 0l21 0 0-52-21 0z m-305-322c7-5 27-12 46-12 36 0 47 22 47 40 0 29-27 42-54 42l-16 0 0 21 15 0c21 0 46 11 46 35 0 17-10 31-36 31-17 0-32-7-42-14l-7 21c11 7 32 16 54 16 41 0 59-25 59-49 0-22-13-40-38-49l0-2c25-5 45-24 45-53 0-33-25-62-75-62-24 0-44 8-54 14z m293 74c0-70-25-109-71-109-41 0-68 38-68 107 0 69 29 108 71 108 44-1 68-40 68-106z m-112-3c0-53 16-84 42-84 29 0 43 33 43 86 0 51-13 84-42 84-25 0-43-30-43-86z"/>
<glyph unicode="&#53;" d="M352 25l-325 0c-15 0-27 11-27 26l0 200c0 15 12 26 27 26l326 0c15 0 27-11 27-26l0-49 132 69 0-237-133 67 0-50c0-15-12-26-27-26z m-325 231c-2 0-6-3-6-5l0-200c0-2 4-5 6-5l325 0c2 0 5 3 5 5l0 84 134-67 0 167-133-70 0 86c0 2-3 5-5 5z m64 49c-50 0-91 41-91 91 0 50 41 90 91 90 50 0 90-40 90-90 0-50-40-91-90-91z m0 160c-39 0-70-31-70-69 0-39 31-70 70-70 38 0 69 31 69 70 0 38-31 69-69 69z m187-160c-50 0-90 41-90 91 0 50 40 90 90 90 51 0 91-40 91-90 0-50-40-91-91-91z m0 160c-38 0-69-31-69-69 0-39 31-70 69-70 39 0 70 31 70 70 0 38-31 69-70 69z"/>
<glyph unicode="&#54;" d="M206 188l-175 0c-17 0-31 14-31 31l0 262c0 18 13 31 31 31l176 0c17 0 31-14 31-31l0-262c-2-18-16-31-32-31z m-175 303c-5 0-10-5-10-10l0-262c0-7 6-10 10-10l175 0c6 0 11 5 11 11l0 261c0 6-6 10-10 10z m175-244l-175 0 0 234 175 0z m-154 22l133 0 0 191-133 0z m44-30l45 0 0-21-45 0z m383-239l-171 0c-18 0-33 15-33 33l0 257c0 18 15 33 33 33l171 0c18 0 33-15 33-33l0-257c0-18-15-33-33-33z m-171 302c-6 0-11-5-11-12l0-257c0-6 5-12 11-12l171 0c6 0 12 6 12 12l0 257c0 7-6 12-12 12z m173-243l-175 0 0 233 175 0z m-154 21l133 0 0 191-133 0z m44-29l45 0 0-21-45 0z m-115-3c-76 0-146 42-182 108l19 10c32-59 95-97 163-97z m163 299c-34 59-95 96-163 96l0 21c77 0 145-39 182-107z"/>
<glyph unicode="&#55;" d="M462 0l-412 0c-28 0-50 22-50 50l0 218c0 27 22 50 50 50l413 0c28 0 50-23 50-50l0-218c-1-29-23-50-51-50z m-412 297c-16 0-29-13-29-29l0-218c0-16 13-29 29-29l412 0c16 0 29 13 30 29l0 218c0 16-13 29-29 29z m168 10c-1 32 1 64 7 93 3 15 8 32 18 45 15 19 39 25 63 17 12-4 21-10 31-15 8-4 14-8 20-11 12-5 26-6 41-4 3 1 5 1 6 3 2 3 3 9 5 16 2 17 3 34 3 52l21 0c0-19-1-37-3-54-1-8-2-19-9-27l-1-1c-6-6-13-8-18-9l-1 0c-19-2-37 0-52 6-8 3-15 8-23 12-9 5-18 11-27 14-16 5-30 2-40-11-7-10-12-23-14-36-5-27-8-57-7-88z m-160-52l23 0 0-21-23 0z m52 0l24 0 0-21-24 0z m52 0l25 0 0-21-25 0z m53 0l24 0 0-21-24 0z m53 0l24 0 0-21-24 0z m52 0l25 0 0-21-25 0z m53 0l24 0 0-21-24 0z m53 0l24 0 0-21-24 0z m-343-56l25 0 0-21-25 0z m54 0l23 0 0-21-23 0z m52 0l24 0 0-21-24 0z m52 0l25 0 0-21-25 0z m53 0l24 0 0-21-24 0z m53 0l24 0 0-21-24 0z m52 0l24 0 0-21-24 0z m-341-41l23 0 0-21-23 0z m52 0l24 0 0-21-24 0z m52 0l25 0 0-21-25 0z m53 0l24 0 0-21-24 0z m53 0l24 0 0-21-24 0z m52 0l25 0 0-21-25 0z m53 0l24 0 0-21-24 0z m53 0l24 0 0-21-24 0z m-343-45l25 0 0-21-25 0z m54 0l23 0 0-21-23 0z m52 0l24 0 0-21-24 0z m52 0l25 0 0-21-25 0z m53 0l24 0 0-21-24 0z m53 0l24 0 0-21-24 0z m52 0l24 0 0-21-24 0z m-341-40l23 0 0-22-23 0z m52 0l24 0 0-22-24 0z m52 0l124 0 0-22-124 0z m158 0l25 0 0-22-25 0z m53 0l24 0 0-22-24 0z m53 0l24 0 0-22-24 0z"/>
<glyph unicode="&#56;" d="M413 163l-313 0c-29 0-52 24-52 52l0 245c0 29 23 52 52 52l313 0c29 0 52-23 52-52l0-243c0-30-23-54-52-54z m-313 328c-17 0-31-14-31-31l0-245c0-17 14-30 31-30l313 0c17 0 31 13 31 32l0 243c0 17-14 31-31 31z m383-491l-455 0c-10 0-17 4-23 12-6 9-7 23-3 37l37 106c6 17 23 30 39 30l354 0c17 0 33-13 38-30l37-106c5-13 4-27-2-36-4-9-12-13-22-13z m-404 162c-6 0-16-6-19-15l-38-105c-3-9-2-15 0-19 1-1 3-2 6-2l455 0c2 0 4 1 6 4 2 3 3 8 0 17l-37 106c-3 10-11 15-19 15l-354 0z m145 121l-15 15c27 25 68 25 94 0l-15-15c-17 17-46 17-64 0z m-36 35l-15 15c22 22 51 34 83 34 32 0 61-12 83-34l-15-15c-18 18-42 28-68 28-26 0-50-10-68-28z m169 34c-55 55-147 55-202 0l-15 15c64 64 168 64 232 0z m-91-86c0-6-5-10-10-10-5 0-10 4-10 10 0 5 5 9 10 9 5 0 10-4 10-9z"/>
<glyph unicode="&#57;" d="M256 83l-189 186 110 0 0 243 158 0 0-243 110 0z m-138 164l138-134 138 134-80 0 0 244-116 0 0-244z m394-247l-512 0 0 178 21 0 0-157 470 0 0 157 21 0z"/>
<glyph unicode="&#33;" d="M335 87l-158 0 0 244-110 0 189 185 189-185-110 0z m-137 22l116 0 0 243 80 0-138 134-138-134 80 0z m314-109l-512 0 0 178 21 0 0-157 470 0 0 157 21 0z"/>
<glyph unicode="&#34;" d="M350 0l-188 0c-29 0-52 23-52 52l0 408c0 29 23 52 52 52l188 0c29 0 52-23 52-52l0-409c0-29-23-51-52-51z m-188 491c-18 0-31-13-31-31l0-408c0-17 14-31 31-31l188 0c17 0 31 13 31 30l0 409c0 17-14 31-31 31z m7-44l36 0 0-21-36 0z m69 0l36 0 0-21-36 0z m69 0l36 0 0-21-36 0z m-138-56l36 0 0-21-36 0z m69 0l36 0 0-21-36 0z m69 0l36 0 0-21-36 0z m-138-56l36 0 0-21-36 0z m69 0l36 0 0-21-36 0z m69 0l36 0 0-21-36 0z m-138-57l36 0 0-21-36 0z m69 0l36 0 0-21-36 0z m69 0l36 0 0-21-36 0z m-138-195l36 0 0-21-36 0z m69 0l36 0 0-21-36 0z m69 0l36 0 0-21-36 0z m-62 145l22 0 0-111-22 0z m-44-45l110 0 0-21-110 0z"/>
<glyph unicode="&#35;" d="M460 0l-183 0c-28 0-52 23-52 52l0 408c0 29 24 52 52 52l183 0c29 0 52-23 52-52l0-408c0-29-23-52-52-52z m-183 491c-17 0-31-14-31-31l0-408c0-17 14-31 31-31l183 0c18 0 31 13 31 31l0 408c0 18-13 31-31 31z m-35-238l253 0 0-22-253 0z m127-196c-40 0-74 34-74 75 0 42 34 76 74 76 41 0 74-34 74-76 0-41-33-75-74-75z m0 130c-29 0-52-25-52-55 0-30 23-54 52-54 29 0 52 24 52 54 0 30-23 55-52 55z m78 273l21 0 0-185-21 0z m-60-145l22 0 0-40-22 0z m-58 46l21 0 0-86-21 0z m-59 53l21 0 0-139-21 0z m-59-277c-6 0-14 1-20 3-18 5-32 18-40 34-9 21-7 45-5 65l1 8c2 23 3 44 3 66 0 35-5 59-16 78-10 20-35 38-58 32l-6 22c35 7 68-16 83-43 12-22 18-51 18-89 0-23-1-44-4-68l-1-8c-2-19-4-39 4-55 5-10 15-19 26-22 12-4 25-3 34 3l11-18c-8-6-19-8-30-8z m1 78c-3 0-7 0-10 2-17 4-28 20-35 32-4 7-8 16-12 23-5 7-8 16-12 23-8 12-18 26-31 30-12 5-27 4-35-7-7-10-7-21-6-36 0-8 2-16 0-24l-21 2c1 7 0 14 0 21-1 16-1 34 10 50 14 20 39 22 58 16 21-7 33-25 43-40 4-8 9-16 13-24 4-8 7-16 12-24 7-13 13-20 21-21 7-2 16 1 20 7l17-11c-6-12-19-19-32-19z m-154-35c-22 0-39 22-39 47 0 26 17 47 39 47 21 0 38-21 38-47 0-25-17-47-38-47z m0 73c-10 0-17-12-17-26 0-14 7-25 17-25 9 0 17 11 17 25 0 14-8 26-17 26z m-19 128c-16 0-29 8-36 21-9 20 2 45 26 56 7 3 15 5 22 5 16 0 30-9 35-21 9-20-3-45-25-56-7-3-14-5-22-5z m12 61c-4 0-8-1-13-4-13-6-19-19-16-27 4-9 19-11 29-6 13 7 19 21 15 28-1 5-7 9-15 9z"/>
<glyph unicode="&#36;" d="M406 263c-36 0-73 16-102 45-53 54-60 130-15 175 19 19 46 30 76 30 37 0 74-16 102-45 29-29 45-66 45-102 0-29-11-55-30-73-19-19-47-30-76-30z m-41 229c-24 0-45-9-61-24-36-36-30-100 15-145 24-24 56-38 87-38 24 0 45 8 61 23 15 15 24 35 24 58 0 31-14 62-39 87-24 25-56 39-87 39z m99-204c-36 11-76 34-110 67-35 35-60 75-70 110l20 5c10-33 32-68 64-101 32-31 67-53 101-62z m-336-229l-75 73 210 273 18-12-200-259 49-48 260 199 13-17z m-52-59c-14 0-29 2-44 9-21 10-37 32-29 53 6 13 18 19 30 24 10 5 19 9 30 13 10 4 19 9 29 13l8-19c-9-4-19-9-30-13-9-4-19-9-28-13-8-3-16-7-20-14-3-9 9-20 19-25 27-12 58-6 80 2 16 5 32 13 46 19 12 5 24 11 37 16 93 35 199 19 266-39l-13-16c-61 53-160 68-246 35-12-4-22-10-35-15-16-8-32-15-49-20-13-6-32-10-51-10z"/>
<glyph unicode="&#37;" d="M118 29l-83 84 51 158 177 179 188-190-177-180z m-58 89l64-65 138 46 158 161-158 160-156-161z m351 152l-138 140 106 106 137-139z m-108 140l108-110 75 77-107 109z m77 26l16-15-25-25-15 15z m43-44l15-15-25-25-15 16z m-349-302l15-15-70-71-16 15z"/>
<glyph unicode="&#38;" d="M220 123l-220 0 0 389 220 0z m-199 21l177 0 0 347-177 0z m89 217c-25 0-45 20-45 44 0 25 20 45 45 45 24 0 45-20 45-45 0-24-21-44-45-44z m0 68c-13 0-24-11-24-24 0-12 11-23 24-23 13 0 23 11 23 23 0 13-10 24-23 24z m0-257c-41 0-74 33-74 73 0 41 33 74 74 74 40 0 73-33 73-74 0-40-33-73-73-73z m0 126c-29 0-52-24-52-53 0-28 23-52 52-52 29 0 52 24 52 52 0 29-23 53-52 53z m-11-175l22 0 0-112-22 0z m-64-102l150 0 0-21-150 0z m477 102l-220 0 0 389 220 0z m-198 21l177 0 0 347-177 0z m88 217c-24 0-45 20-45 44 0 25 21 45 45 45 25 0 45-20 45-45 0-24-20-44-45-44z m0 68c-13 0-23-11-23-24 0-12 10-23 23-23 13 0 24 11 24 23 0 13-11 24-24 24z m0-257c-40 0-73 33-73 73 0 41 33 74 73 74 41 0 74-33 74-74 0-40-33-73-74-73z m0 126c-29 0-52-24-52-53 0-28 23-52 52-52 29 0 52 24 52 52 0 29-23 53-52 53z m-11-175l22 0 0-112-22 0z m-64-102l150 0 0-21-150 0z"/>
<glyph unicode="&#39;" d="M401 364l-181 0 0 111c0 19 17 36 36 36l109 0c19 0 36-17 36-36z m-160 21l139 0 0 90c0 7-8 15-15 15l-109 0c-7 0-15-8-15-15z m200-69l-260 0 43 69 172 0z m-221 21l182 0-17 27-148 0z m-8-178l-181 0 0 111c0 19 17 36 36 36l109 0c19 0 36-17 36-36z m-160 21l139 0 0 90c0 7-8 15-15 15l-109 0c-7 0-15-8-15-15z m199-68l-261 0 45 68 172 0z m-220 21l181 0-16 26-149 0z m450-85l-181 0 0 112c0 19 17 36 36 36l109 0c19 0 36-17 36-36z m-160 21l139 0 0 91c0 7-8 15-15 15l-109 0c-7 0-15-8-15-15z m201-68l-261 0 44 68 172 0z m-222 21l181 0-17 26-148 0z m-46 7c-25 5-45 13-62 22-18 11-35 23-49 38l15 14c13-12 28-23 45-33 15-8 33-16 55-20z m251 156l-21 6c5 15 8 32 8 50 0 60-27 114-72 150l13 18c51-41 80-102 80-168-1-20-4-39-8-56z m-387 140l-19 9c19 40 50 75 92 98l11-18c-38-21-67-52-84-89z"/>
<glyph unicode="&#40;" d="M112 512l235-67-6-21-235 67z m7-511c-4 0-8 2-10 5-2 4-2 8-1 11l53 190 6 1c12 2 21 10 24 21 4 17-4 33-20 39-15 4-32-6-38-22-3-10 1-22 9-31l4-4-51-190c-1-6-6-10-12-10-6 0-12 5-12 12 0 54-8 151-67 201l-11 11 16 8c39 16 71 49 88 93 14 35 16 73 9 106l-6 17 230-64-13-13c-25-25-42-58-47-94-8-45 2-91 28-126l2-3 0-15-9-1c-77-13-133-91-160-136-2-4-6-6-12-6z m59 188l-34-125c31 41 75 82 129 97-23 37-32 84-24 130 5 35 19 67 41 93l-161 45c4-33 0-68-13-102-18-43-49-78-87-98 38-40 53-100 60-150l35 126c-11 14-15 31-11 47 6 22 27 38 49 38 5 0 10-1 14-2 28-9 43-36 35-64-4-18-17-31-33-35z m-69-168l392 0 0-21-392 0z"/>
<glyph unicode="&#41;" d="M512 274l-512 0 0 238 512 0z m-491 21l470 0 0 196-470 0z m491 21l-372 0 0 153 372 0z m-351 21l330 0 0 111-330 0z m-81 12c-25 0-44 19-44 44 0 24 19 43 44 43 25 0 44-19 44-43 0-25-19-44-44-44z m0 66c-13 0-22-10-22-22 0-13 9-23 22-23 13 0 22 10 22 23 0 12-9 22-22 22z m105 16l8 0 0-29c1 2 3 4 6 7 3 1 6 2 9 2 6 0 16-5 16-20l0-27-9 0 0 26c0 8-3 14-10 14-6 0-10-4-11-8 0-1-1-2-1-5l0-27-8 0z m61-9l0-12 12 0 0-7-12 0 0-24c0-6 3-9 7-9 2 0 4 0 5 1l0-6c-2-2-4-2-7-2-5 0-8 1-9 3-2 2-3 6-3 12l0 24-8 0 0 8 8 0 0 10z m32 0l0-12 12 0 0-7-12 0 0-24c0-6 3-9 7-9 2 0 4 0 5 1l0-6c-2-2-5-2-8-2-5 0-8 1-9 3-2 2-3 6-3 12l0 24-8 0 0 8 8 0 0 10z m22-27c0 6 0 10 0 15l7 0 0-8c3 5 9 9 16 9 11 0 19-10 19-24 0-16-9-24-20-24-6 0-12 2-14 7l0-24-8 0c0 0 0 49 0 49z m7-13c0-1 0-2 0-3 1-6 7-10 13-10 9 0 14 8 14 18 0 10-5 17-14 17-5 0-11-4-13-10 0-1-1-3-1-4l0-8z m45-10c2-2 6-3 11-3 6 0 8 3 8 6 0 5-2 7-8 9-9 3-12 7-12 13 0 7 6 14 16 14 4 0 8-1 12-4l-2-6c-3 1-6 2-10 2-5 0-8-3-8-6 0-4 4-6 9-8 7-3 12-7 12-14 0-8-7-13-17-13-6 0-10 1-13 3z m36 30c0 3 2 7 6 7 3 0 5-3 5-7 0-3-2-6-5-6-4 0-6 3-6 6z m0-34c0 3 2 6 6 6 3 0 5-2 5-6 0-3-2-6-5-6-4 1-6 3-6 6z m15-9l27 69 6 0-26-69z m32 0l27 69 6 0-26-69z m-77-363l-92 93-55-55 2 187 185 1-53-55 92-92z m-92 122l92-92 49 49-92 92 32 34-112-2-2-114z"/>
<glyph unicode="&#42;" d="M512 125l-512 0 0 334 512 0z m-491 21l470 0 0 291-470 0z m224-11l22 0 0-71-22 0z m-97-60l216 0 0-22-216 0z m7 171c5-3 16-7 27-7 22 0 29 14 29 24 0 18-16 25-32 25l-9 0 0 13 9 0c13 0 28 6 28 21 0 10-6 19-22 19-10 0-20-4-25-8l-4 13c6 5 19 9 33 9 24 0 36-15 36-30 0-12-7-23-23-30 15-3 27-14 27-32 0-20-16-37-46-37-13 0-26 4-33 9z m100 109c11 1 22 3 35 3 25 0 42-5 52-16 12-10 19-25 19-47 0-21-7-38-20-50-11-11-32-19-57-19-12 0-23 1-31 1l0 128z m17-115c4-1 11-1 17-1 36 0 56 20 56 55 0 31-18 51-53 51-8 0-15-2-19-3l0-102z"/>
<glyph unicode="&#43;" d="M512 30l-190 0 0 153 190 0z m-169 21l148 0 0 111-148 0z m37-30l74 0 0-21-74 0z m-190 9l-190 0 0 153 190 0z m-169 21l148 0 0 111-148 0z m37-30l74 0 0-21-74 0z m189 330l22 0 0-161-22 0z m-21 29l-15 15c27 25 68 25 94 0l-15-15c-17 17-46 17-64 0z m-36 36l-15 15c22 22 51 34 83 34 32 0 61-12 83-34l-15-15c-18 18-42 28-68 28-25 0-50-10-68-28z m169 33c-55 56-147 56-202 0l-15 15c64 64 168 64 232 0z"/>
<glyph unicode="&#44;" d="M419 162l-241 0 0 21 226 0 22 59-264 0-86 249-65 0 0 21 80 0 86-249 278 0z m-206-162c-32 0-58 26-58 58 0 32 26 57 58 57 32 0 59-25 59-57 0-32-27-58-59-58z m0 94c-20 0-37-16-37-36 0-21 17-37 37-37 21 0 38 16 38 37 0 20-17 36-38 36z m169-94c-32 0-59 26-59 58 0 32 27 57 59 57 32 0 59-25 59-57 0-32-27-58-59-58z m0 94c-20 0-37-16-37-36 0-21 17-37 37-37 20 0 37 16 37 37 0 20-17 36-37 36z m68 156l-19 6 55 165-378 0 0 22 408 0z m-318 133l349 0 0-21-349 0z m19-61l309 0 0-21-309 0z"/>
<glyph unicode="&#45;" d="M449 55l-386 0c-35 0-63 28-63 62l0 278c0 35 28 63 63 63l387 0c35 0 63-28 63-63l0-278c-1-35-30-62-64-62z m-386 381c-24 0-42-18-42-41l0-278c0-22 18-40 42-40l386 0c24 0 42 18 43 40l0 278c0 23-18 41-42 41z m-48-75l482 0 0-22-482 0z m49 50l25 0 0-22-25 0z m63 0l24 0 0-22-24 0z m63 0l24 0 0-22-24 0z m-109-118l350 0 0-21-350 0z m0-72l350 0 0-22-350 0z m0-73l350 0 0-21-350 0z"/>
<glyph unicode="&#46;" d="M52 107c-29 41-43 88-43 136 0 119 87 220 208 240l3-21c-110-18-190-111-190-219 0-44 14-86 39-124z m208-107c-53 0-104 16-148 47l13 17c39-28 86-43 135-43 50 0 101 16 141 46l13-17c-44-32-98-50-154-50z m204 100l-17 13c29 40 44 84 44 131 0 103-76 194-181 217l5 21c114-25 197-125 197-238 0-51-17-101-48-144z m-132 322l-37 54 54 34 12-17-36-24 24-34z m-258-324l-64 5 2 22 42-3 4 41 21-2z m340-88l-21 4 6 40-43 7 5 21 64-11z m-27 93l-262 0 0 306 173 0 89-93z m-241 22l220 0 0 182-77 80-143 0z m231 176l-94 0 0 97 21 0 0-76 73 0z m-194-41l152 0 0-21-152 0z m0-55l152 0 0-22-152 0z"/>
<glyph unicode="&#47;" d="M116 0c-31 0-61 12-82 34-22 23-34 52-34 83 0 31 13 60 34 81l280 280c22 22 51 34 82 34 31 0 61-12 82-34 22-23 34-52 34-83 0-31-13-60-34-81l-280-280c-22-22-51-34-82-34z m280 491c-26 0-49-10-67-28l-280-280c-18-17-28-40-28-66 0-25 10-50 28-68 18-18 42-28 67-28 26 0 49 10 67 28l280 280c18 17 28 40 28 66 0 25-10 50-28 68-18 18-42 28-67 28z m-65-320c-4 0-6 1-8 3l-149 149c-4 4-4 11 0 15 4 4 11 4 15 0l149-149c4-4 4-11 0-15-2-2-4-3-7-3z m-169-82l-93 55 10 10 46-29c12-8 22-14 31-20-7 8-13 19-19 32l-28 46 9 10 47-29c11-6 22-14 31-20-6 10-13 20-19 32l-27 48 10 10 53-95-10-10-48 29c-12 7-21 13-29 19 6-8 12-17 18-30l28-49z m21 156c4-3 4-8 0-11-3-4-8-4-11 0-3 3-3 8 0 11 3 5 8 5 11 0z m58-79l-53 54 9 9 54-53z m40 188l39 40 9-9-30-30 24-24 28 27 7-7-27-28 33-33-10-9z m66 56c3-4 3-9 0-12-4-3-9-3-12 0-3 3-3 8 0 12 4 3 8 3 12 0z m57-79l-53 53 10 10 53-54z"/>
<glyph unicode="&#58;" d="M148 1c-45 0-82 14-109 41-71 73-41 233 64 341 54 54 118 84 180 84 48 0 92-18 126-52 80-81 66-211-32-309-64-65-153-105-229-105z m135 445c-57 0-114-28-165-78-96-98-127-246-64-311 23-23 55-35 94-35 70 0 154 39 214 99 89 89 103 206 32 279-30 30-69 46-111 46z m111-31l15-15-156-158-15 15z m-273-30l258-262-15-15-258 262z m290 22c0 0 1 2 1 3l-19 6c2 6 7 10 9 11 1 0 1 1 2 1 7 3 8 8 9 13 1 5-1 11-4 18-2 2-3 4-4 5-4 7-9 17-6 29 2 9 11 17 21 18 9 2 18-1 26-9 5-4 8-11 13-19 2-4 4-9 7-13 5-6 14-8 24-11 6-2 11-5 18-7l-10-19c-4 2-9 4-15 5-12 4-24 8-33 19-4 5-7 11-11 17-3 5-5 10-8 13-3 4-6 4-8 4-3 0-4-2-4-2l0-2c-1-3 1-6 4-11 2-2 3-5 4-7 5-9 7-20 6-31-1-11-8-22-18-27 0 0-1-1-2-1-1-1-1-3-2-3z"/>
<glyph unicode="&#59;" d="M245 501l22 0 0-243-22 0z m11-343c-32 0-58 25-58 57 0 32 26 58 58 58 32 0 58-26 58-58 0-32-26-57-58-57z m0 94c-20 0-36-16-36-37 0-20 16-36 36-36 20 0 36 16 36 36 0 21-16 37-36 37z m0-170c-75 0-133 59-133 133l21 0c0-62 49-112 112-112 62 0 112 51 112 112l21 0c0-73-59-133-133-133z m0-82c-118 0-215 97-215 215l21 0c0-106 87-194 194-194 107 0 194 88 194 194l21 0c0-118-97-215-215-215z"/>
<glyph unicode="&#60;" d="M453 0c-16 0-31 6-42 17l-177 178c-22-9-45-14-68-14-44 0-86 17-117 48-64 63-64 169 0 234 31 32 73 49 116 49 44 0 86-17 118-49 48-48 62-123 34-185l41-41-2-41 38 6 28-29-9-40 28 12 5-34 19 0 41-24 1-3c10-22 6-49-12-66-12-12-27-18-42-18z m-215 221l188-188c15-15 39-15 54 0 11 11 14 26 9 40l-30 17-32 0-4 25-42-18 18 69-12 12-53-7 2 57-46 46 3 7c28 55 16 123-26 166-28 28-64 43-103 43-38 0-74-15-101-43-57-58-57-148 0-204 27-26 63-41 102-41 23 0 45 5 65 15z m-172 58l-6 13c-24 46-14 102 22 139 23 22 52 35 84 35 19 0 38-4 54-13l13-6z m100 166c-26 0-51-11-69-29-27-27-35-65-24-99l123 122c-9 4-19 6-30 6z"/>
<glyph unicode="&#61;" d="M44 512l21 0 0-512-21 0z m-44-407l109 0 0-22-109 0z m178 407l21 0 0-512-21 0z m-44-197l109 0 0-22-109 0z m179 197l21 0 0-512-21 0z m-44-338l109 0 0-21-109 0z m178 338l21 0 0-512-21 0z m-44-54l109 0 0-22-109 0z"/>
<glyph unicode="&#62;" d="M228 0l-181 0c-27 0-47 20-47 47l0 418c0 27 20 47 47 47l182 0c27 0 47-20 47-47l0-418c-1-27-22-47-48-47z m-181 491c-14 0-26-12-26-26l0-418c0-14 12-26 26-26l181 0c15 0 26 12 27 27l0 417c0 14-12 26-26 26z m91-236c-55 0-100 43-100 96 0 53 45 96 100 96 54 0 99-43 99-96 0-53-45-96-99-96z m0 171c-43 0-78-33-78-75 0-42 35-75 78-75 42 0 77 33 77 75 0 42-35 75-77 75z m-77-328l77 0 0-21-77 0z m404 157l-164 0c-27 0-47 20-47 47l0 109c0 26 20 47 47 47l164 0c27 0 47-21 47-47l0-109c0-27-20-47-47-47z m-164 181c-14 0-26-11-26-25l0-109c0-14 12-26 26-26l164 0c14 0 26 12 26 26l0 109c0 14-12 25-26 25z"/>
<glyph unicode="&#63;" d="M0 501l21 0 0-378-21 0z m79 0l21 0 0-325-21 0z m46 0l21 0 0-325-21 0z m41 0l22 0 0-325-22 0z m61 0l22 0 0-325-22 0z m40 0l21 0 0-325-21 0z m75 0l22 0 0-204-22 0z m44 0l21 0 0-197-21 0z m58 0l21 0 0-216-21 0z m43 0l22 0 0-325-22 0z m-94-424c-32 0-62 13-86 35-22 22-35 53-35 85 0 31 13 61 35 84 23 22 54 34 86 34 32 0 61-13 84-36 47-46 47-120 0-167-23-22-52-35-84-35z m0 216c-27 0-52-10-71-28-18-19-29-42-29-68 0-26 10-51 29-69 18-18 44-29 69-29 26 0 52 11 70 29 38 38 38 99 0 138-17 17-42 27-68 27z m-87-166l15-15-110-109-15 15z m-203 4c0-21-7-33-21-33-12 0-20 12-20 32 0 21 8 32 21 32 13 0 20-12 20-31z m-34-1c0-16 6-25 13-25 9 0 13 9 13 25 0 15-4 26-13 26-7 0-13-9-13-26z m105 1c0-21-8-33-21-33-12 0-21 12-21 32 0 21 9 32 22 32 12 0 20-12 20-31z m-33-1c0-16 5-25 13-25 8 0 12 9 12 25 0 15-4 26-12 26-8 0-13-9-13-26z m98 1c0-21-8-33-21-33-12 0-21 12-21 32 0 21 9 32 22 32 12 0 20-12 20-31z m-33-1c0-16 5-25 13-25 8 0 12 9 12 25 0 15-4 26-12 26-8 0-13-9-13-26z"/>
<glyph unicode="&#64;" d="M210 154l-210 0 0 358 210 0z m-189 21l168 0 0 316-168 0z m32 126l103 0 0-22-103 0z m0-35l103 0 0-22-103 0z m0-35l103 0 0-21-103 0z m52 147c-25 0-45 20-45 44 0 25 20 45 45 45 24 0 44-20 44-45 0-24-20-44-44-44z m0 68c-13 0-24-11-24-24 0-12 11-23 24-23 12 0 23 11 23 23 0 13-11 24-23 24z m407-446l-210 0 0 358 210 0z m-189 21l168 0 0 316-168 0z m33 126l103 0 0-21-103 0z m0-34l103 0 0-21-103 0z m0-35l103 0 0-21-103 0z m51 147c-24 0-44 20-44 45 0 24 20 45 44 45 25 0 45-21 45-45 0-25-20-45-45-45z m0 68c-12 0-23-10-23-23 0-13 11-24 23-24 13 0 24 11 24 24 0 13-11 23-24 23z m-119 199l143-71-10-19-143 71z m2-70l-21 67 67 22 6-19-45-16 14-47z m-64-402c-5 2-121 60-145 72l10 19c54-28 137-69 143-72z m-50-19l-6 19 47 16-15 47 19 7 23-67z"/>
<glyph unicode="&#91;" d="M253 1l-192 0c-33 0-61 28-61 61l0 388c0 33 28 61 61 61l191 0c17 0 32-6 43-18l-14-15c-8 7-19 12-29 12l-191 0c-22 0-40-19-40-40l0-388c0-21 18-40 40-40l192 0c21 0 39 19 39 40l0 175 22 0 0-175c0-33-28-61-61-61z m13 191l-218 0c-6 0-11 4-11 11l0 260c0 6 5 11 11 11l218 0 0-22-207 0 0-239 196 0 0 42 21 0 0-52c0-7-4-11-10-11z m-217-22l47 0 0-22-47 0z m84 0l47 0 0-22-47 0z m85 0l47 0 0-22-47 0z m-169-49l47 0 0-22-47 0z m84 0l47 0 0-22-47 0z m85 0l47 0 0-22-47 0z m-169-51l47 0 0-21-47 0z m84 0l47 0 0-21-47 0z m85 0l47 0 0-21-47 0z m143 139c-23 0-44 5-64 14-12 5-24 13-34 20l-106 2c-6 0-9 4-11 9-1 4 1 9 5 12 0 0 41 21 70 36-16 38-16 82 2 121 24 54 78 88 138 88 22 0 43-5 64-14 37-17 65-47 78-85 14-38 12-79-5-115-25-54-79-88-137-88z m-163 57l71-1c2 0 5-2 6-4 9-7 19-15 31-19 17-8 36-13 55-13 51 0 97 30 117 76 15 32 16 67 4 99-12 32-36 59-68 74-17 8-36 13-55 13-51 0-97-30-117-76-17-37-16-78 2-112 2-5 1-12-4-14-12-7-28-16-42-23z m64 68c5-3 11-5 19-5 9 0 16 5 16 12 0 8-5 11-14 15-13 5-21 11-21 22 0 11 10 20 25 20 7 0 14-2 17-3l-3-9c-2 1-8 3-15 3-11 0-14-6-14-11 0-8 4-11 15-15 13-6 19-11 19-23 0-11-8-22-27-22-7 0-14 2-19 5z m122 21c-1 11-1 24-1 33-2-8-5-18-10-29l-14-37-7 0-13 36c-3 11-6 21-8 30 0-9-1-22-1-34l-3-33-9 0 5 76 13 0 13-38c3-9 5-18 7-25 2 7 5 16 9 25l14 38 12 0 5-76-10 0z m26-21c4-3 10-5 18-5 9 0 16 5 16 12 0 8-5 11-14 15-13 5-20 11-20 22 0 11 9 20 24 20 8 0 14-2 17-3l-3-9c-2 1-7 3-15 3-11 0-14-6-14-11 0-8 4-11 15-15 13-6 19-11 19-23 0-11-8-22-26-22-8 0-15 2-20 5z"/>
<glyph unicode="&#93;" d="M237 110c-81 0-146 65-146 146 0 81 65 146 146 146 81 0 146-65 146-146 0-81-65-146-146-146z m0 271c-70 0-125-56-125-125 0-69 55-125 125-125 69 0 125 56 125 125 0 69-56 125-125 125z m65-136l-76 0 0 114 21 0 0-92 55 0z m97 44l21 0 0-67-21 0z m-60 43l-46 159-112 0-46-159-21 6 50 174 146 0 51-174z m-29-332l-146 0-50 174 21 6 46-159 112 0 46 159 22-6z"/>
<glyph unicode="&#94;" d="M270 3c-112 0-210 79-234 187l22 4c21-98 111-169 212-169 119 0 217 96 217 214 0 118-98 214-217 214-45 0-88-14-124-38l-12 17c41 28 88 43 137 43 132 0 239-106 239-236-1-130-108-236-240-236z m0 0c-63 0-117 65-138 163l22 5c17-87 65-146 116-146 66 0 123 98 123 214 0 116-57 214-123 214-30 0-59-20-83-55l-18 12c27 42 64 66 100 66 79 0 144-106 144-236 1-131-64-237-143-237z m-11 464l22 0 0-456-22 0z m-42-98l249 0 0-21-249 0z m-8-119l292 0 0-22-292 0z m-134-119l391 0 0-21-391 0z m-5 80c-10 0-21 4-29 12-14 14-16 34-7 50l-13 13c-14 14-21 32-21 52 0 20 7 39 21 52 14 14 32 22 53 22 20 0 38-8 52-22l15-15c4 2 10 4 18 4 11 0 20-4 28-11 16-16 16-42 0-59l-87-85c-8-9-19-13-30-13z m4 178c-14 0-28-5-38-15-9-9-15-23-15-37 0-14 6-27 15-36l27-27-8-7c-7-9-8-22 0-29 8-8 22-8 29 0l87 85c7 9 7 22 0 29-4 3-8 4-13 4-9 0-16-3-16-3l-7-3-24 24c-10 10-24 15-37 15z m-52-15c-7 8-15 16-17 29l0 1c0 10 2 18 8 28 16 29 49 45 82 42 8-1 17-4 26-6 11-3 23-6 33-4 8 2 15 6 19 13 4 6 6 15 5 22l21 4c6-26-13-55-40-60-15-5-30 0-44 4-8 2-15 4-22 5-25 3-49-9-61-31-3-6-5-10-5-16 1-5 4-9 10-16z m86-128l39-38-15-15-39 38z m24 23l38-39-15-15-38 38z m23 23l39-38-16-16-38 39z m24 23l38-38-15-15-39 38z"/>
<glyph unicode="&#95;" d="M413 243l-190 0 0 22 190 0c42 0 77 37 77 83 0 45-36 83-77 83l-285 0 0 21 285 0c54 0 98-47 98-104 0-58-44-105-98-105z m-30-189l-285 0c-54 0-98 47-98 105 0 58 44 104 98 104l224 0 0-21-224 0c-43 0-77-37-77-83 0-45 36-83 77-83l285 0z m129-54l-140 0 0 139 140 0z m-118 21l97 0 0 96-97 0z m-254 352l-140 0 0 139 140 0z m-119 22l97 0 0 96-97 0z"/>
<glyph unicode="&#96;" d="M414 167c-3 0-8 2-11 3-8 3-16 9-21 20-13 25-11 70 5 117 20 60 56 102 84 102 4 0 8-2 11-3 9-3 16-9 21-20 13-25 11-70-5-117-18-59-53-102-84-102z m59 219c-18 0-46-33-64-86-16-47-15-85-7-102 2-5 5-8 9-9 1 0 2-1 3-1 17 0 48 35 64 86 16 47 15 84 6 101-2 6-5 9-8 10-1 1-2 1-3 1z m-41-150c-2 0-4 0-6 1-19 6-20 35-11 61 7 21 21 42 38 42 2 0 5 0 7-1 5-2 14-7 16-25 1-11-1-23-5-36-7-21-22-42-39-42z m21 82c-3-2-11-11-17-28-5-17-4-29-2-33 3 2 12 11 17 28 6 17 3 29 2 33z m-49-148l-325 108c-31 11-38 73-16 138 22 64 62 102 96 91l324-101-6-20-326 99c-18 7-50-23-69-78-20-57-11-104 3-109l326-109z m-391-121l-4 21 221 41 0 125 22 0 0-142z m-13 118l21 0 0-152-21 0z m69 226l325-109-6-20-326 109z"/>
<glyph unicode="&#123;" d="M464 137l-434 0 0 266c0 27 22 49 49 49l336 0c27 0 49-22 49-49z m-413 21l392 0 0 245c0 16-12 28-28 28l-336 0c-16 0-28-12-28-28z m416-98l-422 0c-26 0-45 19-45 45l0 8c0 26 19 45 45 45l421 0c26 0 45-19 45-45l0-8c1-12-3-23-12-31-8-9-19-14-32-14z m-422 77c-14 0-24-10-24-24l0-8c0-14 10-24 24-24l422 0c7 0 13 2 17 6 5 5 7 10 6 16l0 10c0 14-10 24-24 24z m18-18l51 0 0-21-51 0z m101 0l51 0 0-21-51 0z m-57 274l197 0 0-22-197 0z m0-56l197 0 0-21-197 0z m0-54l99 0 0-22-99 0z m188-11l60-59-15-15-60 59z m4-58l-22 0 0 61 61 0 0-21-39 0z"/>
<glyph unicode="&#124;" d="M182 217l-163 0c-4 0-8 2-9 6-1 4-1 8 2 12l82 82c2 2 4 3 7 3 4 0 6-1 8-3l81-82c3-4 4-8 2-12-1-4-5-6-10-6z m-137 21l112 0-56 56z m184 61l-192 0c-6 0-10 4-10 10l0 192c0 5 2 9 6 10 4 2 9 1 12-2l192-192c3-3 4-8 2-12-1-4-5-6-10-6z m-181 21l156 0-156 156z m113 48c-2 0-3 0-4 1-6 2-8 10-4 14l38 76-77-40c-5-3-12-1-14 4-3 7-1 13 3 16l106 55c4 2 10 1 13-2 3-3 4-9 2-13l-53-106c-2-3-6-5-10-5z m69 116c0-8-7-16-16-16-8 0-16 8-16 16 0 9 8 16 16 16 9 0 16-7 16-16z m262-426l-237 0c-6 0-11 4-11 10l0 172c0 6 5 11 11 11l237 0c6 0 10-5 10-11l0-172c0-6-4-10-10-10z m-226 21l215 0 0 150-215 0z m107-78c-6 0-10 4-10 11l0 56c0 7 4 11 10 11 7 0 11-4 11-11l0-56c0-7-4-11-11-11z m43-1l-85 0c-7 0-11 4-11 11 0 6 4 10 11 10l85 0c6 0 11-4 11-10 0-7-5-11-11-11z m-210 32l-159 0c-6 0-11 4-11 11l0 135c0 7 5 11 11 11 6 0 11-4 11-11l0-125 148 0c6 0 11-4 11-10 0-7-5-11-11-11z m254 260c-7 0-11 5-11 11l0 151-168 0c-7 0-11 5-11 11 0 6 4 11 11 11l179 0c6 0 10-5 10-11l0-162c0-6-4-11-10-11z"/>
<glyph unicode="&#125;" d="M399 0l-285 0c-18 0-32 14-32 32l0 448c0 18 14 32 32 32l285 0c18 0 32-14 32-32l0-448c0-18-14-32-32-32z m-285 491c-6 0-11-5-11-11l0-448c0-6 5-11 11-11l285 0c6 0 11 5 11 11l0 448c0 6-5 11-11 11z m115-34l54 0 0-22-54 0z m45-147l21 0 0-132-21 0z m59 91l21 0 0-223-21 0z m-116-50l21 0 0-173-21 0z m-59-60l21 0 0-113-21 0z m98-239c-25 0-44 19-44 44 0 25 19 44 44 44 25 0 44-19 44-44 0-25-19-44-44-44z m0 66c-13 0-22-9-22-22 0-13 9-22 22-22 13 0 22 9 22 22 0 13-9 22-22 22z"/>
<glyph unicode="&#126;" d="M405 0l-299 0 0 164 299 0z m-278 21l257 0 0 122-257 0z m278 334l-299 0 0 157 299 0z m-278 22l257 0 0 114-257 0z m350-310l-93 0 0 77-257 0 0-77-93 0c-18 0-32 14-32 32l0 215 16 96c0 17 15 31 32 31l77 0 0-64 258 0 0 64 72 0c8 0 17-4 23-11 5-5 9-13 7-21l22-96 0-215c0-17-14-31-32-31z m-72 22l72 0c6 0 10 4 10 10l0 214-21 94 0 3c0 3-1 5-2 6-2 2-4 3-7 3l-51 0 0-64-300 0 0 64-56 0c-6 0-11-4-11-10l0-3-16-96 0-211c0-6 5-10 11-10l72 0 0 76 299 0z m-342 176l62 0 0-22-62 0z m-52 55l490 0 0-21-490 0z"/>
<glyph unicode="&#92;" d="M244 411c-17 17-45 17-62 0l-15 15c26 25 67 25 92 0z m23 22c-15 15-33 22-54 22-20 0-39-7-53-22l-16 15c18 18 43 29 69 29 26 0 50-11 70-29z m-133 26l-15 15c26 25 59 39 94 39 0 0 0 0 1 0 36 0 69-14 93-39l-16-15c-20 21-48 33-77 33 0 0 0 0-1 0-30 0-57-12-79-33z m223-459l-159 0c-21 0-39 18-39 39l0 249c0 21 18 39 39 39l159 0c22 0 40-18 40-39l0-250c-1-21-19-38-40-38z m-159 306c-10 0-18-7-18-18l0-249c0-10 8-18 18-18l159 0c10 0 17 9 18 18l0 249c0 11-7 18-18 18z m164-145l-170 0 0 125 170 0z m-149 21l127 0 0 83-127 0z m-10-42l31 0 0-22-31 0z m59 0l30 0 0-22-30 0z m59 0l31 0 0-22-31 0z m-118-37l31 0 0-21-31 0z m59 0l30 0 0-21-30 0z m59 0l31 0 0-21-31 0z m-118-37l31 0 0-21-31 0z m59 0l30 0 0-21-30 0z m59 0l31 0 0-21-31 0z m-118 336l21 0 0-85-21 0z"/>
<glyph unicode="&#57344;" d="M462 21l-412 0c-28 0-50 23-50 50l0 302c0 28 22 50 50 50l412 0c28 0 50-22 50-50l0-302c0-27-22-50-50-50z m-412 381c-16 0-29-13-29-29l0-302c0-16 13-28 29-28l412 0c16 0 29 12 29 28l0 302c0 16-13 29-29 29z m324 9l-21 0 0 49c0 6-5 9-10 9l-173 0c-7 0-10-5-10-9l0-49-21 0 0 49c0 17 14 31 31 31l173 0c18 0 31-14 31-31z m-287-64l22 0 0-249-22 0z m63 0l22 0 0-249-22 0z m63 0l22 0 0-249-22 0z m64 0l22 0 0-249-22 0z m63 0l22 0 0-249-22 0z m63 0l22 0 0-249-22 0z"/>
<glyph unicode="&#57345;" d="M206 100c-113 0-206 93-206 206 0 113 93 206 206 206 113 0 206-93 206-206 0-22-5-43-8-57l-20 5c3 14 7 33 7 53-1 100-84 184-185 184-101 0-185-84-185-185 0-101 84-184 185-184 11 0 21 1 31 3l4-22c-11-2-23-3-35-3z m0 0c-64 0-116 93-116 206 0 115 51 206 116 206 65 0 116-91 116-206 0-22-1-40-4-56l-21 4c3 15 4 32 4 52 0 100-44 185-95 185-51 0-95-85-95-185 0-100 44-184 95-184 9 0 18 2 28 8l10-18c-13-9-24-12-38-12z m-11 401l22 0 0-390-22 0z m-156-286l200 0 0-21-200 0z m-28 102l390 0 0-22-390 0z m28 101l333 0 0-21-333 0z m431-353l-242 0 0 160c0 19 17 36 37 36l169 0c19 0 36-17 36-36z m-220 21l199 0 0 139c0 8-7 15-15 15l-169 0c-8 0-15-7-15-15z m271-86l-345 0 57 86 232 0z m-304 21l265 0-28 44-210 0z"/>
<glyph unicode="&#57346;" d="M199 33l-16 15 214 227c30 31 30 82 0 113-14 15-32 24-52 24-20 0-39-9-53-24l-194-209-16 15 195 209c18 19 42 30 68 30 25 0 49-11 67-30 37-39 37-103 0-143z m-80-33c-32 0-61 14-84 37-46 49-46 130 0 181l240 258 16-15-241-258c-38-42-38-109 0-151 18-20 43-31 69-31 26 0 51 11 70 31l16-15c-24-24-54-37-86-37z m199 86l-16 15 151 165c49 51 49 135 0 186-22 25-53 39-85 39 0 0 0 0-1 0-33 0-63-14-86-39l-14 15c27 29 64 46 102 45 38 0 74-16 100-45 57-60 57-157 0-216z"/>
<glyph unicode="&#57347;" d="M11 21l84 0 0-21-84 0z m0 49l84 0 0-21-84 0z m0 49l84 0 0-21-84 0z m0 50l84 0 0-22-84 0z m0 49l84 0 0-22-84 0z m0 49l84 0 0-22-84 0z m0 49l84 0 0-22-84 0z m0 49l84 0 0-22-84 0z m0 49l84 0 0-21-84 0z m0 49l84 0 0-21-84 0z m0 49l84 0 0-21-84 0z m135-491l84 0 0-21-84 0z m0 49l84 0 0-21-84 0z m136-49l84 0 0-21-84 0z m0 49l84 0 0-21-84 0z m0 49l84 0 0-21-84 0z m0 50l84 0 0-22-84 0z m0 49l84 0 0-22-84 0z m0 49l84 0 0-22-84 0z m135-246l84 0 0-21-84 0z m0 49l84 0 0-21-84 0z m0 49l84 0 0-21-84 0z m0 50l84 0 0-22-84 0z m0 49l84 0 0-22-84 0z m0 49l84 0 0-22-84 0z m0 49l84 0 0-22-84 0z m0 49l84 0 0-22-84 0z m0 49l84 0 0-21-84 0z"/>
<glyph unicode="&#57348;" d="M255 110l-126 0c-20 0-37 14-44 33l-30 115c-14 2-28 9-39 20-12 14-18 31-16 51 4 33 32 57 66 57l255 0c19 0 37-8 49-23 13-15 17-36 13-56-5-25-28-45-54-48l-30-116c-7-19-24-33-44-33z m-189 255c-23 0-43-17-45-39-1-11 2-24 11-33 9-8 19-14 31-14l10 0 34-130c3-10 11-18 22-18l126 0c11 0 19 8 22 18l34 130 9 0c19 0 37 14 42 32 3 14 0 28-9 39-7 9-19 15-32 15z m253-365c-32 0-63 9-88 26-33 22-51 61-44 98l21-3c-4-28 11-60 36-77 25-17 57-25 90-22 33 3 62 15 79 36 22 25 26 60 31 98 2 18 4 37 9 55 8 30 24 52 44 60l8-20c-20-8-28-34-31-45-5-17-7-35-9-53-4-39-10-79-36-109-22-25-55-40-94-42-4-1-11-2-16-2z m-204 501l22 0 0-126-22 0z m138 0l21 0 0-126-21 0z"/>
<glyph unicode="&#57349;" d="M354-1c-15 0-29 4-41 16-37 34-91 42-99 43-9 0-49 0-65 17-5 6-7 12-7 21 3 30 32 38 47 39l1 0 51-10-101 168c-12 18-6 43 13 55 19 11 42 5 54-13l79-130-18-11-79 130c-6 9-16 12-25 7-8-6-11-16-6-25l127-211-96 21c-6 0-24-3-25-20 0-2 0-3 1-4 8-9 33-11 49-11l3 0c3 0 67-7 110-49 35-32 98 21 99 21l2 1c0 0 35 19 53 30 12 9 15 45-10 87l-73 121c-5 9-16 12-24 8-4-3-6-8-6-11-1-4 0-10 2-14l18-30-18-10-18 30c-5 8-6 19-4 28 2 11 8 20 17 25 18 11 41 4 53-14l72-123c27-47 28-97 3-115-18-12-48-28-55-31-7-5-45-36-84-36z m-92 203l-25 42c-6 10-8 21-6 30 3 10 9 18 18 23 18 10 41 4 53-14l28-47-19-11-27 47c-6 9-16 12-24 6-3-2-6-5-7-9-1-4 0-10 2-14l26-43z m49 23l-20 34c-5 10-7 20-4 30 2 10 8 18 17 22 18 11 42 5 53-13l22-37-18-10-22 36c-5 8-16 12-23 6-3-2-7-5-8-9-1-5 0-10 2-14l21-34z m-138-165l-126 0c-27 0-47 20-47 47l0 358c0 27 20 47 47 47l290 0c27 0 47-20 47-47l0-149-21 0 0 149c0 14-12 26-26 26l-290 0c-14 0-26-12-26-26l0-358c0-14 12-26 26-26l126 0z m-95 374l214 0 0-21-214 0z"/>
<glyph unicode="&#57350;" d="M146 0l-146 0 0 497 146 0z m-125 21l104 0 0 455-104 0z m14 77l75 0 0-21-75 0z m0 44l75 0 0-21-75 0z m0 280l75 0 0-21-75 0z m275-422l-146 0 0 497 146 0z m-124 21l103 0 0 455-103 0z m13 77l75 0 0-21-75 0z m0 44l75 0 0-21-75 0z m0 280l75 0 0-21-75 0z m169-424l-64 492 145 23 65-492z m-41 475l59-450 103 18-59 448z m137-361l3-21-73-12-4 22z m-6 45l3-21-73-13-4 21z m-37 276l4-21-74-11-3 21z"/>
<glyph unicode="&#57351;" d="M21 389l-21 0 0 123 123 0 0-21-102 0z m491 0l-21 0 0 102-102 0 0 21 123 0z m0-389l-123 0 0 21 102 0 0 102 21 0z m-389 0l-123 0 0 123 21 0 0-102 102 0z m133 26c-127 0-230 103-230 230 0 127 103 230 230 230 127 0 230-103 230-230 0-127-103-230-230-230z m0 439c-115 0-209-94-209-209 0-115 94-209 209-209 115 0 209 94 209 209 0 115-94 209-209 209z m11-435c-13 0-25 9-30 19-6 9-8 18-9 27 0 2-1 4-1 6-2 9-4 15-9 19l-19 14 23 6c1 1 2 6 1 11-1 2-3 6-4 9-4 6-8 13-9 20 0 2-1 5-1 8 0 3 0 5-1 6-1 2-6 4-11 6-7 4-18 7-22 18-4 12 0 26 12 36l2 2c5 4 9 7 10 12 0 2-1 4-2 5-2 1-4 3-6 2-1 0-2-1-3-1-5-2-11-5-18-3l-1 0c-8 2-12 8-14 13-1 1-1 3-2 3-2 1-8 1-11 1-15-1-31 2-43 8-15 9-24 25-24 41 1 19 16 34 33 35-5 16 2 35 17 44l3 2c3 1 4 2 5 3 2 2 1 5 0 8-1 3-4 5-7 8-2 1-3 3-5 5l14 15c2-1 4-3 5-4 4-4 9-8 13-15 5-12 4-24-5-33-4-4-7-5-10-7l-3-1c-5-4-8-13-6-21 1-4 3-9 1-17l-2-3-2-2c-5-5-13-5-17-5-7 0-13-7-14-15 0-9 7-17 14-22 7-4 19-7 31-6 8 0 19 0 26-8 3-2 5-5 6-8 0-1 1-2 2-3 1 0 2 1 3 1 1 1 3 1 4 2 10 3 21 1 28-6 8-8 11-18 9-27-4-11-11-17-17-24l-3-2c-2-2-6-6-5-10 1-3 4-4 11-6 7-3 16-6 21-15 3-5 3-11 4-16 0-1 0-3 0-4 1-4 4-10 7-15 2-3 4-7 5-11 3-10 3-21-2-29 0-1-1-1-1-3 4-6 6-13 8-21 0 4 1 9 4 12 3 6 7 11 13 13 4 1 6 1 8 1 1 0 2 0 3 1 1 1 2 4 0 7l0 1c-1 2-2 6-3 8-2 5-5 10-5 17-4 18 10 36 25 43 13 6 30 7 46 5l4-1 2-4c4-6 5-11 5-15 0-1 0-3 0-4l2 0c3 0 6 1 8 1 4 2 7 2 10 3 7 1 14 3 15 6 0 2-3 4-5 7-4 4-7 7-9 11-4 9-5 17-6 25 0 1 0 3 0 4l0 1c0 1 0 2-1 2-1 1-7 0-10 0-3 0-7-1-12-1-11 0-23 6-32 18-4 7-6 13-8 20-5-2-12-4-18 0-5 4-7 8-7 9l-1 3c-3 14-6 27-9 40-4 12-6 25-9 39l0 2c0 1-1 6 1 10l2 3c4 4 10 4 13 4 16-1 29-7 42-15 3-1 5-3 8-4 1 0 1-1 2-1 0 0 1 0 1 0 0 0 1 3 1 8 0 16-10 32-25 40-3 0-7 2-11 4l-2 6-1 2c-1 2-2 4-3 6-1 1-1 2-2 3l-1 1c-2 3-5 5-8 7-4 2-8 5-13 9-8 10-9 26-3 37l18-11c-2-3-1-10 1-13 2-2 5-3 8-5 5-3 11-8 15-14 1-2 2-3 3-5l3-1c25-11 42-36 42-61 0-12-7-26-20-29-5-1-10 0-13 2-1 0-1 0-3 1l-1 1c-3 2-6 4-9 6-9 4-16 8-25 10 2-10 6-21 8-32 2-11 5-23 7-35 4 2 11 5 18 1l5-2 1-4c1-2 1-4 2-7 2-6 4-12 7-17 3-4 9-9 15-9 3 0 6 0 9 1 8 1 20 3 29-7 4-4 5-10 5-16 0-1 0-3 0-4 1-6 1-12 3-15 1-2 3-4 5-6 6-6 12-12 12-23l0-1c-1-14-14-23-33-25-2 0-5-1-8-1-4 0-6-1-9-1-6-3-14-1-19 2l-1 1c-8 6-8 14-8 19 0 0 0 0 0 1-9 1-19-1-26-4-9-3-14-13-13-20 0-5 2-8 4-12 1-3 3-7 4-10 5-12 1-29-12-35l-3-1c-2-1-4-1-7-1-1 0-3 0-4-1-1-3-1-10 1-14 1-2 2-4 3-6 4-9 10-20 7-31l1-10-6-1c-3-1-5-1-6-1z"/>
<glyph unicode="&#57352;" d="M242 28c-133 0-242 106-242 239 0 132 109 239 242 239 133 0 241-107 241-239 0-22-3-44-8-66l-21 5c6 20 9 40 9 60 0 119-98 217-220 217-122 1-222-97-222-216 0-120 100-218 221-218 19 0 39 3 58 9l5-21c-20-6-42-9-63-9z m-1 0c-82 0-147 104-147 239 0 132 66 239 148 239 82 0 146-105 146-239l-21 0c0 119-56 217-125 217-70 0-127-98-127-217 0-120 57-218 126-218 17 0 32 5 47 16l13-17c-18-13-39-20-60-20z m-10 473l22 0 0-468-22 0z m-203-130l427 0 0-21-427 0z m0-188l214 0 0-21-214 0z m383-183c-46 0-97 22-134 58-30 29-47 65-47 101 0 31 13 61 37 83 22 23 52 34 83 34 36 0 72-16 103-46 37-35 59-86 59-131 0-30-10-55-28-72-18-17-43-27-73-27z m-61 256c-26 0-49-10-68-29-20-18-30-42-30-68 0-30 14-61 40-86 33-32 78-53 119-53 24 0 44 8 58 22 14 13 22 34 22 57 0 40-21 84-53 116-26 27-57 41-88 41z m-27-55l41-41-15-15-41 41z"/>
<glyph unicode="&#57353;" d="M512 0l-512 0 0 512 512 0z m-491 21l470 0 0 470-470 0z m438 103l-407 0 0 340 407 0z m-385 21l363 0 0 298-363 0z m105-61l270 0 0-21-270 0z m-108 0l35 0 0-21-35 0z m123 107l0 205 169-103z m21 166l0-129 107 64z"/>
<glyph unicode="&#57354;" d="M256 30c-125 0-226 101-226 226 0 125 101 226 226 226 125 0 226-101 226-226 0-125-101-226-226-226z m0 431c-113 0-205-92-205-205 0-113 92-205 205-205 113 0 205 92 205 205 0 113-92 205-205 205z m161-375c-59 0-139 24-216 65-142 75-226 178-195 237 15 27 51 40 100 38l-1-22c-41 2-70-7-80-26-22-42 48-136 185-208 95-51 194-74 247-57 14 4 24 12 29 21 10 19 1 47-23 81l17 13c31-41 39-78 26-104-8-15-23-26-42-32-14-5-30-6-47-6z m-266-86c-9 0-19 2-27 6-27 15-40 51-38 101l22-1c-2-42 7-71 26-81 42-22 136 48 208 185 51 95 74 193 57 247-4 14-12 24-21 29-20 11-48 1-81-23l-13 17c40 31 78 39 104 26 15-8 26-23 32-42 18-59-4-161-58-262-65-123-150-202-211-202z"/>
<glyph unicode="&#57355;" d="M221 0c-15 0-28 5-39 16l-166 166c-11 11-16 24-16 39 0 15 5 28 16 38l194 194c5 6 12 10 18 12l112 43c19 7 43 3 58-12l97-97c16-16 21-37 14-57l-39-107c-3-9-7-15-13-21l-198-198c-10-11-23-16-38-16z m140 491c-5 0-8-1-12-2l-112-43c-4-2-9-4-11-8l-195-194c-6-6-10-15-10-23 0-9 4-17 10-24l166-166c13-13 34-13 47 0l200 199c3 4 5 7 7 11l39 108c4 12 1 24-10 35l-97 97c-6 6-15 10-22 10z m0-177c-26 0-47 21-47 47 0 25 21 46 47 46 25 0 46-21 46-46 0-26-21-47-46-47z m0 72c-14 0-26-12-26-25 0-14 12-26 26-26 13 0 25 12 25 26 0 13-12 25-25 25z m73-280c-13 0-24 3-37 10-32 17-60 56-73 102-22 75-2 148 47 163 11 3 19 4 27 2l-3-21c-5 1-10 0-17-3-37-11-52-73-32-137 11-40 35-74 63-89 13-7 26-9 39-6 37 12 51 74 32 135-2 8-4 14-6 20l19 9c3-7 6-15 8-23 24-75 4-146-46-162-9 1-14 0-21 0z"/>
<glyph unicode="&#57356;" d="M512 0l-512 0 0 306 512 0z m-491 21l470 0 0 264-470 0z m410 265l-350 0 0 51c0 96 79 175 175 175 96 0 175-79 175-175z m-329 21l308 0 0 30c0 84-70 154-154 154-84 0-154-70-154-154z m183-253l-57 0 0 69c-23 10-39 35-39 62 0 37 30 67 67 67 37 0 67-30 67-67 0-27-15-51-38-62z m-35 22l13 0 0 62 8 2c18 6 31 24 31 45 0 25-20 45-46 45-26 0-46-20-46-45 0-21 13-38 32-45l8-2z"/>
<glyph unicode="&#57357;" d="M73 234c-40 0-73 33-73 72 0 40 33 73 73 73 39 0 72-33 72-73 0-39-33-72-72-72z m0 123c-28 0-52-23-52-51 0-28 24-51 52-51 27 0 51 23 51 51 0 28-24 51-51 51z m183 10c-39 0-73 33-73 72 0 40 34 73 73 73 39 0 73-33 73-73 0-39-34-72-73-72z m0 124c-28 0-51-24-51-52 0-27 23-51 51-51 28 0 51 24 51 51 0 28-23 52-51 52z m183-271c-39 0-72 33-72 72 0 40 33 73 72 73 40 0 73-33 73-73 0-39-33-72-73-72z m0 123c-27 0-51-23-51-51 0-27 24-51 51-51 28 0 52 24 52 51 0 28-24 51-52 51z m-171-343c-40 0-73 33-73 73 0 39 33 72 73 72 40 0 72-33 72-72 0-40-33-73-72-73z m0 124c-28 0-51-24-51-51 0-28 23-52 51-52 27 0 51 24 51 52 0 27-24 51-51 51z m-68 289l12-18-84-58-12 17z m116-2l82-72-15-16-81 72z m75-160l17-13-90-124-17 12z"/>
<glyph unicode="&#57358;" d="M406 215l-281 0 23 89c9 29 38 48 73 48l117 0c39 0 68-22 68-51z m-253 22l232 0 0 64c0 16-21 30-47 30l-117 0c-28 0-47-16-51-33z m119 103l21 0 0-114-21 0z m-155-340c-36 0-66 29-66 65 0 36 30 65 66 65 37 0 66-29 66-65 0-36-29-65-66-65z m0 109c-24 0-44-19-44-44 0-24 20-44 44-44 25 0 45 20 45 44 0 25-20 44-45 44z m279-109c-37 0-66 29-66 65 0 36 29 65 66 65 36 0 66-29 66-65 0-36-30-65-66-65z m0 109c-25 0-45-19-45-44 0-24 20-44 45-44 24 0 45 20 45 44 0 25-21 44-45 44z m45-58l0 15c0 25-21 44-45 44-25 0-45-19-45-44l0-15-189 0 0 15c0 25-20 44-45 44-24 0-44-19-44-44l0-15-11 0c-20 1-39 10-49 24-10 11-14 27-11 42l14 64c1 31 30 56 65 56l367 0c35 0 65-26 65-57l0-73c0-29-27-55-61-56z m-258 22l148 0c3 33 32 58 66 58 34 0 62-24 66-56 17 4 29 18 29 32l0 73c0 19-21 35-44 35l-368 0c-25 0-44-16-44-35l0-2-14-65c-2-8 1-17 7-24 5-8 14-12 23-14 5 32 32 57 66 57 33-1 62-26 65-59z m-97 149c-13 27-20 56-20 88-1 54 20 104 58 142 38 39 88 60 143 60 111 0 201-91 201-202 0-31-6-60-20-87l-19 10c12 24 18 50 18 78 0 99-81 180-180 180-48 0-94-20-128-54-34-34-53-79-52-127 0-28 7-55 19-80z m46 9c-3 5-6 13-8 20-1 2-1 4-2 5-7 17-10 35-10 53 0 86 69 155 155 155 85 0 155-69 155-155 0-16-2-32-6-47l-1-2-9-17-19 10 9 16c3 13 5 25 5 39 0 74-60 134-133 134-74 0-134-60-134-134 0-15 4-31 8-46 0-1 1-3 2-5 2-5 4-13 6-16z m49 87l-21 4c1 7 6 20 9 26 14 41 54 69 99 69 43 0 84-28 99-68l-20-8c-13 33-45 56-80 56-37 0-69-23-80-56-1-7-5-19-6-23z"/>
<glyph unicode="&#57359;" d="M404 0l-296 0c-26 0-45 19-45 45l0 422c0 26 19 45 45 45l296 0c26 0 45-19 45-45l0-421c0-26-19-46-45-46z m-296 491c-14 0-24-10-24-24l0-422c0-14 10-24 24-24l296 0c14 0 24 11 24 25l0 421c0 14-10 24-24 24z m285-279l-272 0 0 249 272 0z m-251 22l229 0 0 205-229 0z m114-187c-37 0-67 30-67 67 0 37 30 67 67 67 37 0 67-30 67-67 0-37-30-67-67-67z m0 113c-26 0-46-20-46-46 0-25 20-46 46-46 26 0 46 21 46 46 0 26-20 46-46 46z m-11 245l22 0 0-137-22 0z m-31-56l-15 15 57 56 57-56-15-15-42 41z"/>
<glyph unicode="&#57360;" d="M459 235l-240 0 0 178c0 54 44 99 99 99l41 0c55 0 100-45 100-99z m-219 21l197 0 0 157c0 42-35 78-78 78l-41 0c-43 0-78-36-78-78z m178-214c-66 0-131 35-149 80l-56 134 242 0 53-126c7-18 6-36-3-52-14-21-43-35-79-36-5 0-7 0-8 0z m-173 193l43-105c15-38 77-68 134-67 29 1 53 11 62 27 7 9 7 20 2 32l-45 113z m-17 0l-228 12 0 157c0 60 54 108 121 108l218 0 0-21-218 0c-55 0-100-39-100-87l0-137 209-11z m-73 10l21 0 0-234-21 0z"/>
<glyph unicode="&#57361;" d="M62 388c-34 0-62 28-62 62 0 34 28 62 62 62 34 0 62-28 62-62 0-34-28-62-62-62z m0 103c-23 0-41-18-41-41 0-22 18-40 41-40 22 0 40 18 40 40 0 23-18 41-40 41z m135-30l304 0 0-22-304 0z m-135-267c-34 0-62 28-62 62 0 34 28 62 62 62 34 0 62-28 62-62 0-34-28-62-62-62z m0 103c-23 0-41-19-41-41 0-22 18-41 41-41 22 0 40 19 40 41 0 22-18 41-40 41z m288-30l151 0 0-22-151 0z m-288-267c-34 0-62 28-62 62 0 34 28 62 62 62 34 0 62-28 62-62 0-34-28-62-62-62z m0 102c-23 0-41-18-41-40 0-23 18-41 41-41 22 0 40 18 40 41 0 22-18 40-40 40z m135-29l304 0 0-22-304 0z m14 142l-62 73 17 13 47-56 110 97 15-15z"/>
<glyph unicode="&#57362;" d="M159 193c-30 0-53 24-53 53 0 30 23 54 53 54 30 0 53-24 53-54 0-29-23-53-53-53z m0 85c-18 0-32-13-32-32 0-18 14-32 32-32 18 0 32 14 32 32 0 19-14 32-32 32z m115-220l-230 0 0 10c2 64 53 114 115 114 62 0 113-50 115-114z m-208 21l186 0c-7 47-46 82-93 82-47 0-86-35-93-82z m251 194l117 0 0-21-117 0z m0-60l117 0 0-21-117 0z m-9 118l-105 0 0 181 105 0z m-84 21l63 0 0 139-63 0z m245-352l-426 0c-24 0-43 19-43 43l0 293c0 23 19 43 43 43l181 0 0-27 64 0 0 27 181 0c24 0 43-20 43-43l0-293c0-24-19-43-43-43z m-426 357c-12 0-22-9-22-21l0-293c0-12 10-22 22-22l426 0c12 0 22 10 22 22l0 293c0 12-10 21-22 21l-160 0 0-26-106 0 0 26z"/>
<glyph unicode="&#57363;" d="M325 107l-137 0-2 8c-5 20-15 55-22 64-9 14-20 27-30 39-27 33-54 65-54 119 1 96 80 175 176 175 96 0 175-79 175-175 0-53-26-84-52-117-11-13-22-26-31-41-7-9-16-44-22-64z m-120 21l103 0c5 17 14 50 23 63 10 16 21 30 32 43 25 31 47 58 47 103 0 84-70 154-154 154-84 0-154-70-154-154 0-47 22-74 49-107 11-12 22-25 31-40 9-12 19-45 23-62z m-16-34l134 0 0-21-134 0z m5-35l124 0 0-22-124 0z m62-59c-26 0-48 22-48 48l21 0c0-15 12-27 27-27 15 0 27 12 27 27l21 0c0-26-22-48-48-48z"/>
<glyph unicode="&#57364;" d="M105 0c-28 0-55 11-74 31-41 40-41 107 0 147l55 56c20 19 46 29 74 29 28 0 54-10 74-29 40-41 40-107 0-148l-56-55c-19-20-46-31-73-31z m55 242c-22 0-43-8-59-24l-55-56c-32-32-32-85 0-117 16-15 36-24 59-24 22 0 42 9 58 25l56 55c32 32 32 86 0 118-16 15-37 23-59 23z m192 5c-28 0-54 11-74 30-40 41-40 107 0 148l56 55c19 19 46 30 73 30 28 0 55-11 74-30 41-41 41-107 0-147l-55-56c-20-18-46-30-74-30z m55 243c-22 0-42-9-58-25l-56-55c-32-32-32-86 0-118 16-16 37-24 59-24 22 0 43 8 59 24l55 56c32 32 32 85 0 117-16 16-36 25-59 25z m-51-118l15-15-206-206-15 15z"/>
<glyph unicode="&#57365;" d="M395 350l-277 0 0 162 277 0z m-255 21l233 0 0 120-233 0z m30-371l-170 0 0 162 170 0z m-149 21l127 0 0 120-127 0z m491-21l-170 0 0 162 170 0z m-148 21l127 0 0 120-127 0z m-18 37l-90 140-90-140-17 10 107 171 107-171z m-101 303l22 0 0-142-22 0z"/>
<glyph unicode="&#57366;" d="M224 61c-117 0-213 88-223 206-11 123 80 232 203 244 6 1 14 1 20 1 116 0 212-89 223-206 2-28-1-56-9-84l-3-11-205 59c11-41 36-140 49-191l4-11-11-2c-9-2-17-3-26-4l-3 0c-6 0-13-1-19-1z m0 430c-6 0-13 0-18-1-111-10-193-109-184-221 10-107 96-187 203-187 5 0 11 0 17 1l2 0c5 0 9 1 12 2-18 70-50 199-50 199l-4 18 219-63c6 22 8 44 6 66-11 106-97 186-203 186z m111-493l-2 11c-16 66-54 206-54 209l-5 17 241-70-3-10c-22-78-86-138-166-156z m-31 207c10-39 33-127 46-180 64 18 116 66 137 128z"/>
<glyph unicode="&#57367;" d="M512 0l-512 0 0 512 512 0z m-491 21l470 0 0 470-470 0z m491 76l-89 0 0 318 89 0z m-67 21l46 0 0 276-46 0z m-356-21l-89 0 0 318 89 0z m-68 21l46 0 0 276-46 0z m360-21l-251 0 0 318 251 0z m-230 21l208 0 0 276-208 0z m-103 347l33 0 0-21-33 0z m64 0l33 0 0-21-33 0z m64 0l33 0 0-21-33 0z m63 0l34 0 0-21-34 0z m64 0l33 0 0-21-33 0z m64 0l33 0 0-21-33 0z m64 0l33 0 0-21-33 0z m-383-397l33 0 0-21-33 0z m64 0l33 0 0-21-33 0z m64 0l33 0 0-21-33 0z m63 0l34 0 0-21-34 0z m64 0l33 0 0-21-33 0z m64 0l33 0 0-21-33 0z m64 0l33 0 0-21-33 0z"/>
<glyph unicode="&#57368;" d="M476 0l-416 0c-21 0-35 15-35 35l0 274 487 0 0-274c0-19-16-35-36-35z m-430 288l0-253c0-8 5-14 14-14l416 0c8 0 15 7 15 14l0 253z m-11-71l466 0 0-22-466 0z m46 88l77-92-16-14-77 93z m87 0l78-93-16-14-78 93z m89 0l77-92-16-14-77 93z m87 0l78-93-16-14-78 93z m89 0l77-92-16-14-77 93z m-403-18l-33 110 469 117 33-110z m-5 95l20-69 429 106-21 70z m85 39l20-9-48-108-20 9z m86 21l19-9-48-108-19 9z m85 21l19-9-48-108-19 9z m85 21l20-8-48-109-20 9z m85 22l19-9-48-108-20 9z"/>
<glyph unicode="&#57369;" d="M149 27c-33 0-51 20-52 20l-76 77c-33 33-20 78-7 97 0 1 1 1 1 2l224 224c24 24 56 37 92 37 35 0 67-13 91-37 51-50 51-132 1-182l-224-224c-1-2-2-2-3-3-16-7-32-11-47-11z m-118 182c-3-6-22-43 5-70l77-77c1-1 14-14 36-14 11 0 23 3 36 9l222 222c42 43 41 111-1 153-20 20-47 31-75 31-29 0-57-11-76-31z m417 145c-3 0-5 1-7 3-5 5-5 11 0 15l53 54c4 4 11 4 15 0 4-5 4-11 0-15l-54-54c-2-2-4-3-7-3z m-125-92c-23 0-45 9-62 26-34 34-34 89 0 123 16 16 39 25 62 25 24 0 45-8 62-25 33-34 33-89 0-123-16-17-38-26-62-26z m0 153c-17 0-34-6-46-19-25-26-25-67 0-93 13-13 29-19 46-19 17 0 34 6 46 19 25 26 25 67 0 93-12 13-28 19-46 19z m-170-173c-3 0-6 1-8 3l-19 18c-4 5-4 11 0 15 4 5 11 5 15 0l19-18c4-4 4-10 0-15-2-2-4-3-7-3z m91-92c-2 0-5 1-7 4l-19 18c-5 4-5 10 0 15 4 4 10 4 15 0l19-18c4-5 4-11 0-15-2-3-5-4-8-4z m-46 46c-2 0-5 1-7 3l-19 19c-5 4-5 10 0 15 4 4 10 4 15 0l19-19c4-4 4-10 0-15-2-2-4-3-8-3z m-71 21c-2 0-5 1-8 3l-19 18c-4 4-4 11 0 15 5 4 11 4 15 0l19-18c5-5 5-11 0-15-2-2-4-3-7-3z m92-92c-2 0-6 1-8 3l-19 18c-4 4-4 11 0 15 4 4 11 4 15 0l19-18c4-4 4-11 0-15-2-2-4-3-7-3z m-46 46c-2 0-6 1-8 3l-19 18c-4 4-4 11 0 15 4 4 11 4 15 0l19-18c5-4 5-11 0-15-2-2-4-3-7-3z m-72 20c-2 0-5 1-7 3l-19 18c-5 5-5 11 0 15 4 4 10 4 15 0l19-18c4-4 4-11 0-15-2-2-4-3-8-3z m92-92c-2 0-5 1-7 3l-20 19c-4 4-4 10 0 14 5 5 11 5 15 0l20-18c4-4 4-10 0-15-3-2-5-3-8-3z m-46 46c-2 0-5 1-7 3l-19 18c-5 5-5 11 0 15 4 5 10 5 14 0l20-18c4-4 4-10 0-15-2-2-5-3-8-3z m-71 20c-3 0-6 1-8 4l-19 19c-4 4-4 10 0 15 4 4 11 4 15 0l19-20c4-4 4-10 0-14-2-3-4-4-7-4z m91-91c-2 0-5 1-7 3l-19 18c-4 4-4 11 0 15 4 4 10 4 15 0l19-18c4-5 4-11 0-15-2-2-4-3-8-3z m-45 45c-4 0-6 2-8 4l-19 19c-4 4-4 11 0 15 4 4 11 4 15 0l19-19c4-5 4-11 0-15-2-2-4-4-7-4z m61 154c-3 0-5 1-7 3l-19 19c-4 5-4 11 0 15 4 5 10 5 15 0l19-19c4-4 4-10 0-15-2-2-4-3-8-3z m92-92c-3 0-5 1-7 4l-19 19c-5 4-5 10 0 15 4 4 10 4 14 0l20-20c4-4 4-10 0-14-2-3-5-4-8-4z m-35 47c-6-6-17-6-23 0l-15 15c-7 7-7 17 0 24 6 6 17 6 23 0l15-15c6-7 6-17 0-24z"/>
<glyph unicode="&#57370;" d="M253 275c-72 0-129 58-129 129 0 7 4 11 10 11l237 0c7 0 11-4 11-11 0-71-58-129-129-129z m-108 119c5-55 51-97 108-97 56 0 101 42 108 97z m149 47c-3 0-5 1-7 3-17 17-47 17-64 0-4-5-11-5-15 0-4 4-4 10 0 15 26 25 68 25 94 0 4-5 4-11 0-15-2-2-4-3-8-3z m-121 16c-3 0-6 1-8 3-4 4-4 10 0 15 52 50 133 50 183 0 4-5 4-11 0-15-5-5-11-5-15 0-42 41-110 41-153 0-2-2-4-3-7-3z m147-359l-128 0 0 172 128 0z m-107 21l86 0 0 130-86 0z m107-119l-128 0 0 118 128 0z m-107 21l86 0 0 76-86 0z m214 101l-128 0 0 118 128 0z m-107 21l85 0 0 76-85 0z m-106-21l-128 0 0 118 128 0z m-106 21l85 0 0 76-85 0z"/>
<glyph unicode="&#57371;" d="M449 180l-383 0c-6 0-11 5-11 11l0 224c0 6 5 11 11 11l383 0c6 0 11-5 11-11l0-224c0-6-5-11-11-11z m-372 22l361 0 0 202-361 0z m424-116l-490 0c-5 0-8 3-10 6-2 3-2 7 0 10l56 94c3 6 9 7 14 5 6-4 7-10 5-15l-46-78 453 0-45 78c-3 5-1 11 5 15 5 3 11 1 15-5l53-94c2-3 2-7 0-10-2-3-5-6-10-6z m-183 54l-114 0c-3 0-6 2-6 5 0 3 3 5 6 5l114 0c3 0 5-2 5-5 0-3-2-5-5-5z m-213 0l-16 0c-4 0-6 2-6 5 0 3 2 5 6 5l16 0c3 0 5-2 5-5 0-3-2-5-5-5z m53 0l-16 0c-3 0-5 2-5 5 0 3 2 5 5 5l16 0c3 0 5-2 5-5 0-3-2-5-5-5z m213 0l-16 0c-3 0-5 2-5 5 0 3 2 5 5 5l16 0c3 0 6-2 6-5 0-3-3-5-6-5z m54 0l-18 0c-3 0-5 2-5 5 0 3 2 5 5 5l18 0c3 0 5-2 5-5 0-3-2-5-5-5z"/>
<glyph unicode="&#57372;" d="M117 362c-37 0-67 29-67 67 0 37 30 67 67 67 38 0 68-30 68-67 0-38-30-67-68-67z m0 113c-25 0-46-21-46-46 0-26 21-46 46-46 26 0 46 20 46 46 0 25-20 46-46 46z m0-213l-117 0 0 11c0 78 62 123 64 125 4 3 12 2 15-2 3-5 2-12-2-15 0 0-49-36-55-97l96 0c7 0 11-5 11-11 0-6-5-11-12-11z m118 0l-118 0c-6 0-10 5-10 11 0 6 4 11 10 11l96 0c-5 61-54 97-54 97-4 3-6 9-2 15 3 4 9 6 15 2 2-2 64-47 64-125l0-11z m160 100c-38 0-68 29-68 67 0 37 30 67 68 67 37 0 67-30 67-67 0-38-30-67-67-67z m0 113c-26 0-46-21-46-46 0-26 20-46 46-46 25 0 46 20 46 46 0 25-21 46-46 46z m0-213l-118 0 0 11c0 78 62 123 64 125 5 3 12 2 15-2 3-5 2-12-2-15 0 0-49-36-54-97l96 0c6 0 10-5 10-11 0-6-5-11-11-11z m117 0l-117 0c-7 0-11 5-11 11 0 6 4 11 11 11l96 0c-6 61-55 97-55 97-4 3-6 9-2 15 3 4 10 6 15 2 2-2 64-47 64-125l0-11z m-256-147c-37 0-67 30-67 67 0 38 30 68 67 68 37 0 67-30 67-68 0-37-30-67-67-67z m0 113c-26 0-46-20-46-46 0-25 20-45 46-45 26 0 46 20 46 45 0 26-20 46-46 46z m0-212l-117 0 0 11c0 78 62 122 64 124 4 4 11 3 15-2 3-4 2-11-3-15 0 0-49-36-54-97l96 0c6 0 11-4 11-10 0-7-6-11-12-11z m117 0l-117 0c-6 0-11 4-11 11 0 6 5 10 11 10l96 0c-5 61-54 97-54 97-5 4-7 10-3 15 5 6 10 7 15 2 3-2 64-46 64-124l0-11z m-208 64c-2 0-4 1-6 2-46 32-74 84-74 141 0 17 4 35 10 53 2 6 7 9 14 7 5-2 8-8 6-14-5-16-7-32-7-47 0-49 24-95 65-124 5-3 6-9 3-15-4-1-7-3-11-3z m182 0c-4 0-7 2-9 4-3 6-2 12 3 15 41 28 65 75 65 124 0 15-3 31-7 47-2 5 1 12 6 14 6 2 12-1 14-7 7-18 10-36 10-53 0-57-28-109-74-141-4-2-6-3-8-3z m-160 276c-5 0-8 2-10 7-2 5 0 11 5 14 26 11 49 17 74 17 26 0 51-6 73-16 5-3 7-9 5-14-2-6-9-8-14-6-19 10-42 14-64 14-21 0-42-4-65-15-1-1-3-1-4-1z"/>
<glyph unicode="&#57373;" d="M255 63c-29 0-52 28-52 62l0 81c0 35 23 62 52 62 29 0 52-28 52-62l0-81c0-35-23-62-52-62z m0 183c-17 0-31-18-31-40l0-81c0-23 14-41 31-41 17 0 31 18 31 41l0 81c0 22-14 40-31 40z m222-144l-103 0c-20 0-35 20-35 45 0 26 15 45 35 45l103 0c20 0 35-19 35-45 0-25-15-45-35-45z m-103 69c-7 0-13-11-13-24 0-13 6-23 13-23l103 0c7 0 14 10 14 23 0 13-7 24-14 24z m-236-69l-103 0c-20 0-35 20-35 45 0 26 15 45 35 45l103 0c20 0 35-19 35-45 0-25-15-45-35-45z m-103 69c-7 0-14-11-14-24 0-13 7-23 14-23l103 0c7 0 13 10 13 23 0 13-6 24-13 24z m220 78c-6 0-11 4-11 10l0 44c0 6 5 11 11 11 6 0 11-5 11-11l0-44c0-6-5-10-11-10z m85 106c-3 0-5 1-7 3-20 21-48 32-78 32-30 0-58-11-78-32-4-4-11-4-15 0-4 5-4 11 0 15 25 25 58 39 93 39 35 0 68-14 93-39 4-4 4-10 0-15-2-2-5-3-8-3z m-142-24c-3 0-5 1-7 3-4 4-4 11 0 15 35 35 91 35 126 0 4-4 4-11 0-15-4-4-11-4-15 0-27 27-69 27-96 0-2-2-4-3-8-3z m173 49c-3 0-5 1-7 3-30 30-69 46-110 46-42 0-80-16-110-46-4-4-11-4-15 0-4 4-4 11 0 15 33 33 78 52 125 52 47 0 92-18 125-52 4-4 4-11 0-15-2-2-5-3-8-3z m-101-71c0-8-7-15-15-15-8 0-15 7-15 15 0 9 7 15 15 15 8 0 15-6 15-15z"/>
<glyph unicode="&#57374;" d="M256 0c-141 0-256 115-256 256 0 141 115 256 256 256 141 0 256-115 256-256 0-141-115-256-256-256z m0 491c-129 0-235-106-235-235 0-129 106-235 235-235 129 0 235 106 235 235 0 129-106 235-235 235z m0-299c-35 0-64 29-64 64 0 35 29 64 64 64 35 0 64-29 64-64 0-35-29-64-64-64z m0 107c-23 0-43-20-43-43 0-23 20-43 43-43 23 0 43 20 43 43 0 23-20 43-43 43z m-166-21c-7 0-11 5-11 11 0 73 54 132 126 140 6 1 10-3 12-10 1-5-4-10-10-12-60-6-107-57-107-118 0-6-4-11-10-11z m54-16c-6 0-11 5-11 11 0 51 39 93 90 98 5 1 11-4 12-9 1-6-5-11-10-12-40-4-70-37-70-77 0-6-5-11-11-11z"/>
<glyph unicode="&#57375;" d="M245 501l22 0 0-371-22 0z m11-501c-41 0-74 33-74 74 0 40 33 73 74 73 41 0 74-33 74-73 0-41-33-74-74-74z m0 126c-29 0-52-24-52-52 0-29 23-53 52-53 29 0 52 24 52 53 0 28-23 52-52 52z m76 286l-76 74-75-74-15 15 90 89 91-89z m-79-256l-123 41 0 78 21 0 0-63 108-37z m-112 105c-26 0-46 21-46 46 0 26 20 46 46 46 25 0 46-20 46-46 0-25-21-46-46-46z m0 71c-14 0-25-11-25-25 0-14 11-24 25-24 14 0 24 10 24 24 0 14-10 25-24 25z m119-144l-8 19 111 53 0 47 21 0 0-60z m157 109l-87 0 0 87 87 0z m-66 21l45 0 0 45-45 0z"/>
<glyph unicode="&#57376;" d="M174 114c-31 0-61 12-82 34-46 46-46 119 0 165l164 165c22 22 51 34 82 34 31 0 60-12 82-34 46-46 46-119 0-164l-164-166c-22-22-51-34-82-34z m164 377c-25 0-49-10-67-28l-164-165c-38-38-38-97 0-135 18-18 41-28 67-28 25 0 49 10 67 28l164 166c38 37 38 97 0 134-18 18-41 28-67 28z m-1-143l51-51-15-16-51 52z m-33-34l51-53-15-15-52 53z m-36-35l52-52-15-15-52 51z m-34-35l51-51-15-15-51 51z m6 202l51-53-15-14-52 52z m-35-35l51-52-15-15-51 52z m-36-34l53-52-15-15-52 52z m-34-34l53-52-15-15-53 51z m121-295c-32 0-60 28-60 60l0 244 22 0 0-244c0-22 17-39 38-39 21 0 38 17 38 39l0 112 22 0 0-112c0-32-28-60-60-60z m-11 12l22 0 0-49-22 0z m-100-39l222 0 0-21-222 0z"/>
<glyph unicode="&#57377;" d="M450 82l-388 0c-34 0-62 28-62 62l0 224c0 34 28 62 62 62l387 0c34 0 62-28 62-62l0-223c1-16-5-32-17-44-12-12-28-19-44-19z m-388 327c-23 0-41-19-41-41l0-224c0-22 18-41 41-41l388 0c11 0 21 5 29 12 7 8 12 18 11 29l0 223c0 22-19 40-41 40l-387 0z m390-327l-392 0 52 112 287 0z m-358 21l324 0-33 70-259 0z m54 127c-29 0-52 24-52 53 0 28 23 52 52 52 29 0 53-24 53-52 0-29-24-53-53-53z m0 84c-17 0-31-14-31-31 0-17 14-31 31-31 17 0 31 14 31 31 0 17-14 31-31 31z m216-84c-29 0-53 24-53 53 0 28 24 52 53 52 29 0 52-24 52-52 0-29-23-53-52-53z m0 84c-17 0-31-14-31-31 0-17 14-31 31-31 17 0 31 14 31 31 0 17-14 31-31 31z m-216 21l216 0 0-21-216 0z m0-82l216 0 0-22-216 0z"/>
<glyph unicode="&#57378;" d="M449 149l-383 0c-6 0-11 5-11 11l0 286c0 6 5 11 11 11l383 0c6 0 11-5 11-11l0-286c0-6-5-11-11-11z m-372 22l361 0 0 264-361 0z m424-116l-490 0c-5 0-8 3-10 6-2 3-2 7 0 10l56 94c3 6 9 7 14 5 6-4 7-10 5-15l-46-78 453 0-45 78c-3 5-1 11 5 15 5 3 11 1 15-5l53-94c2-3 2-7 0-10-2-3-5-6-10-6z m-245 137c-59 0-106 47-106 106 0 58 47 105 106 105 6 0 11-4 11-10l0-84 84 0c6 0 11-4 11-10l0-1c0-59-47-106-106-106z m-11 189c-41-6-73-41-73-83 0-47 37-85 84-85 44 0 79 33 83 75l-83 0c-6 0-11 4-11 11z"/>
<glyph unicode="&#57379;" d="M436 0l-360 0c-43 0-76 33-76 76l0 299c0 43 33 76 76 76l359 0c43 0 76-33 76-76l0-299c1-21-6-39-20-54-15-13-34-22-55-22z m-360 430c-31 0-55-24-55-55l0-299c0-31 24-55 55-55l360 0c15 0 29 6 39 16 9 10 15 24 15 39l0 299c0 31-24 55-55 55z m37 71l21 0 0-124-21 0z m89 0l21 0 0-124-21 0z m87 0l21 0 0-124-21 0z m89 0l21 0 0-124-21 0z m-302-190l54 0 0-21-54 0z m102 0l55 0 0-21-55 0z m101 0l55 0 0-21-55 0z m103 0l54 0 0-21-54 0z m-306-74l54 0 0-22-54 0z m102 0l55 0 0-22-55 0z m101 0l55 0 0-22-55 0z m103 0l54 0 0-22-54 0z m-306-75l54 0 0-21-54 0z m102 0l55 0 0-21-55 0z m101 0l55 0 0-21-55 0z m103 0l54 0 0-21-54 0z m-306-73l54 0 0-22-54 0z m102 0l55 0 0-22-55 0z m101 0l55 0 0-22-55 0z"/>
<glyph unicode="&#57380;" d="M161 245l-144 0c-6 0-11 5-11 11l0 245c0 7 5 11 11 11l144 0c6 0 11-4 11-11l0-245c0-6-5-11-11-11z m-133 22l122 0 0 224-122 0z m74 28c0-5-4-10-10-10-6 0-11 5-11 10 0 6 5 11 11 11 6 0 10-5 10-11z m14 160l-53 0c-6 0-11 5-11 11 0 7 5 11 11 11l53 0c7 0 11-4 11-11 0-6-4-11-11-11z m0-29l-53 0c-6 0-11 4-11 10 0 7 5 11 11 11l53 0c7 0 11-4 11-11 0-6-4-10-11-10z m378-426l-144 0c-7 0-11 4-11 11l0 245c0 6 4 11 11 11l144 0c6 0 11-5 11-11l0-245c0-7-5-11-11-11z m-133 21l122 0 0 224-122 0z m72 29c0-6-5-11-11-11-5 0-10 5-10 11 0 6 5 11 10 11 6 0 11-5 11-11z m14 160l-54 0c-7 0-11 4-11 11 0 6 4 10 11 10l54 0c6 0 11-4 11-10 0-7-5-11-11-11z m0-30l-54 0c-7 0-11 5-11 11 0 6 4 11 11 11l54 0c6 0 11-5 11-11 0-6-5-11-11-11z m12 158c-1 0-4 0-5 1l-199 99c-5 3-8 9-5 14 2 6 8 8 13 6l200-100c5-2 7-8 5-13-2-5-5-7-9-7z m-184 40c-4 0-8 3-10 7l-21 62c-2 5 1 12 7 14l62 19c5 2 11-1 13-6 3-6-1-12-6-14l-51-17 17-53c2-5-1-11-7-13-2 1-3 1-4 1z m-22-325c-1 0-3 0-4 1l-200 100c-5 2-7 8-5 13 2 6 8 8 14 6l199-99c5-3 8-9 5-14-2-5-5-7-9-7z m-57-22c-4 0-8 3-9 7-2 6 1 12 6 14l51 17-17 53c-2 5 1 11 7 13 5 3 11-1 13-6l21-62c2-5-1-12-7-14l-62-21c-1-1-2-1-3-1z"/>
<glyph unicode="&#57381;" d="M365 47l-218 0c-12 0-21 10-21 21l0 376c0 11 9 21 21 21l218 0c10 0 21-11 21-21l0-376c0-10-11-21-21-21z m-218 397l0-376 217 0 1 376z m126-350c0-10-8-17-17-17-9 0-17 7-17 17 0 9 8 17 17 17 9 0 17-8 17-17z m68-11l-33 0c-6 0-10 4-10 11 0 6 4 11 10 11l33 0c7 0 11-5 11-11 0-7-4-11-11-11z m-137 0l-33 0c-7 0-11 4-11 11 0 6 4 11 11 11l33 0c6 0 10-5 10-11 0-7-4-11-10-11z m75 331l-46 0c-7 0-11 4-11 11 0 6 4 10 11 10l46 0c7 0 11-4 11-10 0-7-4-11-11-11z m95-28l-236 0c-7 0-11 4-11 11 0 6 4 10 11 10l236 0c7 0 11-4 11-10 0-7-4-11-11-11z m0-271l-236 0c-7 0-11 4-11 11 0 6 4 11 11 11l236 0c7 0 11-5 11-11 0-7-4-11-11-11z m32 33c-2 0-4 1-6 2-4 4-5 11-2 15 39 55 38 128-3 182-4 4-4 11 2 15 4 3 12 3 15-3 48-60 49-144 3-206-2-4-5-5-9-5z m-301 1c-4 0-7 1-9 5-44 63-43 141 2 203 3 5 11 6 15 2 4-3 5-10 2-14-39-54-40-124-2-179 3-5 2-11-2-15-2-1-4-2-6-2z m342-26c-2 0-4 1-6 2-5 3-6 10-3 15 52 70 51 164-3 233-3 5-3 12 2 15 5 3 12 3 15-2 59-77 61-181 3-259-2-3-5-4-8-4z m-383 1c-3 0-6 1-9 4-55 77-54 179 3 255 3 4 10 5 15 2 4-3 5-11 2-15-52-68-53-160-2-229 3-4 2-12-3-15-2-1-4-2-6-2z"/>
<glyph unicode="&#57382;" d="M256 306c-29 0-52 24-52 52 0 29 23 53 52 53 29 0 52-24 52-53 0-28-23-52-52-52z m0 83c-17 0-31-14-31-31 0-17 14-31 31-31 17 0 31 14 31 31 0 17-14 31-31 31z m81-239l-162 0c-6 0-11 5-11 11l0 56c0 48 40 87 88 87l8 0c48 0 88-39 88-87l0-56c0-6-5-11-11-11z m-151 22l140 0 0 45c0 37-28 66-66 66l-8 0c-37 0-66-30-66-66z m231-172l-323 0c-26 0-46 20-46 46l0 420c1 26 21 46 46 46l323 0c26 0 46-20 46-46l0-420c0-26-20-46-46-46z m-323 491c-13 0-24-11-25-26l0-419c0-13 12-25 25-25l323 0c13 0 25 12 25 25l0 420c0 13-12 25-25 25z m208-436l-92 0c-6 0-11 5-11 11 0 7 5 11 11 11l92 0c6 0 11-4 11-11 0-6-5-11-11-11z"/>
<glyph unicode="&#57383;" d="M437 0l-362 0c-18 0-32 14-32 32l0 448c0 18 14 32 32 32l362 0c18 0 32-14 32-32l0-448c0-18-14-32-32-32z m-362 491c-7 0-11-5-11-11l0-448c0-6 4-11 11-11l362 0c7 0 11 5 11 11l0 448c0 6-4 11-11 11z m197-421c0-8-7-16-16-16-9 0-16 8-16 16 0 9 7 16 16 16 9 0 16-7 16-16z m11 365l-54 0c-6 0-10 4-10 11 0 6 4 11 10 11l54 0c6 0 10-5 10-11 0-7-4-11-10-11z"/>
<glyph unicode="&#57384;" d="M326 30c-27 0-53 11-72 30-2 2-3 4-3 7 0 3 1 6 3 8l130 130c2 2 4 3 7 3 4 0 6-1 8-3 40-41 40-105 0-145-19-19-45-30-73-30z m-49 38c14-10 32-16 50-16 22 0 42 9 58 24 30 30 32 74 8 106z m-178-59c-24 0-47 9-64 26-35 36-35 94 0 129l1 1 6 5 71 71 206 207 129-129-284-284c-17-17-40-26-65-26z m-49 140c-27-26-27-71 0-99 13-13 30-20 49-20 19 0 36 7 50 20l269 269-99 99-265-265z m362 176l-88 88 95 95 88-88z m-57 88l58-58 65 65-58 58z m-173-286c-3 0-5 1-7 3-4 4-4 11 0 15l140 139c4 4 10 4 15 0 4-5 4-11 0-15l-140-139c-2-2-4-3-8-3z m228 305c0-5-4-9-9-9-5 0-8 4-8 9 0 5 3 9 8 9 5 0 9-4 9-9z m28-29c0-5-3-8-8-8-5 0-9 3-9 8 0 5 4 9 9 9 5 0 8-4 8-9z"/>
<glyph unicode="&#57385;" d="M468 49l-424 0c-25 0-44 19-44 44l0 326c0 25 19 44 44 44l424 0c25 0 44-19 44-44l0-326c0-25-19-44-44-44z m-424 393c-12 0-23-11-23-23l0-326c0-12 11-23 23-23l424 0c12 0 23 11 23 23l0 326c0 12-11 23-23 23z m168-347c-89 0-163 74-163 163 0 90 74 163 163 163 90 0 163-73 163-163 0-89-73-163-163-163z m0 305c-78 0-142-64-142-142 0-78 64-142 142-142 78 0 142 64 142 142 0 78-64 142-142 142z m0-205c-35 0-63 28-63 63 0 35 28 63 63 63 35 0 63-28 63-63 0-35-28-63-63-63z m0 105c-23 0-41-18-41-42 0-23 18-41 41-41 24 0 42 19 42 41 0 23-18 42-42 42z m161-203l-17 13 53 67 0 159 21 0 0-165z m46 228c-25 0-47 22-47 47 0 26 22 47 47 47 26 0 47-21 47-47 0-25-21-47-47-47z m0 73c-14 0-25-12-25-26 0-14 11-25 25-25 14 0 26 11 26 25 0 14-12 26-26 26z m-370-283l27 0 0-21-27 0z"/>
<glyph unicode="&#57386;" d="M512 45l-512 0 0 421 512 0z m-491 21l470 0 0 379-470 0z m491 254l-512 0 0 146 512 0z m-491 21l470 0 0 104-470 0z m28 63l22 0 0-21-22 0z m44 0l22 0 0-21-22 0z m44 0l302 0 0-21-302 0z"/>
<glyph unicode="&#57387;" d="M171 115c-36 0-63 28-63 63 0 35 27 63 63 63 35 0 63-28 63-63 0-35-28-63-63-63z m0 105c-24 0-42-18-42-42 0-23 18-41 42-41 23 0 41 19 41 41 0 23-18 42-41 42z m88-173c-24 0-45 20-45 45 0 24 21 45 45 45 25 0 45-21 45-45 0-25-20-45-45-45z m0 68c-13 0-23-10-23-23 0-13 10-24 23-24 13 0 24 11 24 24 0 13-11 23-24 23z m242 77l-284 0c-7 0-11 4-11 11 0 6 4 10 11 10l269 0c3 8 4 15 4 24 0 37-28 70-65 77l-12 2 3 11c2 7 3 14 3 21 0 53-42 96-96 96-31 0-60-15-78-41l-7-9-9 8c-11 11-25 16-40 16-31 0-58-23-61-53l-1-10-15 0c-50 0-91-41-91-92 0-18 6-35 15-50l88 0c6 0 10-4 10-10 0-7-4-11-10-11l-98 0-4 4c-15 19-22 43-22 67 0 61 48 111 109 114 8 36 42 62 80 62 16 0 32-5 46-14 22 25 54 40 88 40 65 0 118-52 118-117 0-6 0-11-2-16 42-13 72-51 72-95 0-13-2-27-8-39z m-162 124l-166 0c-7 0-11 4-11 10 0 7 4 11 11 11l166 0c7 0 11-4 11-11 0-6-4-10-11-10z m54-49l-274 0c-6 0-10 4-10 10 0 7 4 11 10 11l274 0c6 0 10-4 10-11 0-6-4-10-10-10z"/>
<glyph unicode="&#57388;" d="M450 0l-388 0c-33 0-62 29-62 62l0 388c0 33 29 62 62 62l387 0c35 0 63-28 63-62l0-387c0-35-28-63-62-63z m-388 491c-23 0-41-18-41-41l0-388c0-23 18-41 41-41l388 0c23 0 41 20 41 42l0 387c0 23-20 41-42 41z m169-288l0 260 131-130z m22 209l0-158 79 79z m-22-363l0 260 131-130z m22 209l0-158 79 79z m-81 110l84-83-15-15-84 83z m69-127l15-15-84-83-15 16z"/>
<glyph unicode="&#57389;" d="M370 0l-228 0c-11 0-21 11-21 21l0 470c0 10 10 21 21 21l228 0c11 0 21-11 21-21l0-470c0-10-10-21-21-21z m-228 491l0-470 227 0 1 470z m96-421l36 0 0-21-36 0z m-32 406l100 0 0-22-100 0z m219-339l-19 11c43 65 42 153-3 217l17 13c51-73 53-169 5-241z m-339 1c-45 70-44 164 3 235l18-11c-43-64-44-150-2-213z m381-32l-17 11c56 85 55 196-3 279l17 11c62-89 64-211 3-301z m-423 2c-58 89-58 209 2 296l18-11c-54-82-55-191-2-274z m307-13l-191 0 0 348 191 0z m-170 21l149 0 0 305-149 0z"/>
<glyph unicode="&#57390;" d="M395 0l-278 0c-30 0-53 23-53 53l0 406c0 30 23 53 53 53l278 0c30 0 53-23 53-53l0-406c0-30-23-53-53-53z m-278 491c-18 0-32-14-32-32l0-406c0-18 14-32 32-32l278 0c18 0 32 14 32 32l0 406c0 18-14 32-32 32z m139-361c-27 0-48 21-48 48 0 27 21 48 48 48 27 0 48-21 48-48 0-27-21-48-48-48z m0 75c-15 0-27-12-27-27 0-15 12-27 27-27 15 0 27 12 27 27 0 15-12 27-27 27z m0 134c-33 0-61 28-61 61 0 33 28 61 61 61 33 0 61-28 61-61 0-33-28-61-61-61z m0 100c-21 0-39-18-39-39 0-21 18-39 39-39 21 0 39 18 39 39 0 21-18 39-39 39z m0-387c-69 0-126 57-126 126 0 69 57 126 126 126 69 0 126-57 126-126 0-69-57-126-126-126z m0 231c-58 0-105-47-105-105 0-57 47-104 105-104 58 0 105 47 105 104 0 58-47 105-105 105z"/>
<glyph unicode="&#57391;" d="M402 0l-291 0c-6 0-11 4-11 11l0 490c0 7 5 11 11 11l291 0c7 0 11-4 11-11l0-490c0-7-4-11-11-11z m-280 21l269 0 0 470-269 0z m279 148l-290 0c-6 0-11 4-11 10 0 7 5 11 11 11l290 0c6 0 11-4 11-11 0-6-5-10-11-10z m-145-136c-33 0-61 28-61 61 0 33 28 61 61 61 33 0 61-28 61-61 0-33-28-61-61-61z m0 100c-21 0-39-18-39-39 0-21 18-40 39-40 21 0 39 19 39 40 0 21-18 39-39 39z m15-39c0-8-7-15-15-15-8 0-15 7-15 15 0 8 7 15 15 15 8 0 15-7 15-15z m-30 148c-3 0-5 1-7 3-52 52-52 133 0 184 4 4 10 4 15 0 4-4 4-11 0-15-21-20-32-48-32-77 0-29 11-56 32-77 4-4 4-10 0-15-3-2-5-3-8-3z m25 30c-4 0-6 1-8 3-16 16-25 39-25 62 0 24 8 46 25 62 4 4 11 4 15 0 4-4 4-11 0-15-13-13-19-29-19-47 0-18 6-34 19-47 4-4 4-11 0-15-2-2-4-3-7-3z m-49-61c-4 0-6 1-8 3-68 69-68 179 0 247 4 4 11 4 15 0 4-4 4-11 0-15-60-60-60-157 0-217 4-4 4-10 0-15-2-2-4-3-7-3z m125 126c0-11-8-19-19-19-10 0-19 8-19 19 0 11 9 19 19 19 11 0 19-8 19-19z"/>
<glyph unicode="&#57392;" d="M263 350c-44 0-81 36-81 81 0 45 37 81 81 81 45 0 82-36 82-81 0-45-37-81-82-81z m0 141c-33 0-59-27-59-60 0-33 26-60 59-60 34 0 60 27 60 60 0 33-26 60-60 60z m167-491c-45 0-81 36-81 81 0 45 36 81 81 81 45 0 81-36 81-81 0-45-36-81-81-81z m0 141c-33 0-60-27-60-60 0-33 27-60 60-60 33 0 60 27 60 60 0 33-27 60-60 60z m-348-4c-45 0-81 36-81 81 0 44 36 81 81 81 45 0 81-37 81-81 0-45-36-81-81-81z m0 140c-33 0-60-26-60-59 0-33 27-60 60-60 33 0 60 27 60 60 0 33-27 59-60 59z m181-207c-6 0-10 5-10 11l0 280c0 6 4 10 10 10 7 0 11-4 11-10l0-280c0-6-4-11-11-11z m95 0l-95 0c-6 0-10 5-10 11 0 6 4 11 10 11l95 0c7 0 11-5 11-11 0-6-4-11-11-11z m-97 137l-103 0c-7 0-11 4-11 11 0 6 4 10 11 10l103 0c7 0 11-4 11-10 0-7-4-11-11-11z"/>
<glyph unicode="&#57393;" d="M256 3l-245 0c-7 0-11 4-11 11l0 484c0 7 4 11 11 11l245 0c6 0 11-4 11-11l0-484c0-7-5-11-11-11z m-235 22l224 0 0 462-224 0z m112 266c-46 0-83 38-83 83 0 46 37 84 83 84 46 0 84-38 84-84 0-45-38-83-84-83z m0 145c-34 0-62-27-62-62 0-34 28-61 62-61 34 0 62 27 62 61 0 35-28 62-62 62z m0-282c-33 0-60 27-60 60 0 33 27 61 60 61 33 0 61-28 61-61 0-33-28-60-61-60z m0 100c-21 0-39-18-39-40 0-21 18-39 39-39 22 0 40 18 40 39 0 22-18 40-40 40z m0-199c-23 0-42 20-42 43 0 24 19 43 42 43 24 0 43-19 43-43 0-23-19-43-43-43z m0 64c-11 0-21-9-21-21 0-12 10-21 21-21 12 0 22 9 22 21 0 12-10 21-22 21z m368-116l-245 0c-6 0-11 4-11 11l0 371c0 6 5 11 11 11l245 0c7 0 11-5 11-11l0-371c0-7-4-11-11-11z m-234 22l224 0 0 349-224 0z m112 158c-46 0-84 38-84 84 0 46 38 83 84 83 46 0 83-37 83-83 0-46-37-84-83-84z m0 146c-34 0-62-28-62-62 0-34 28-62 62-62 34 0 62 28 62 62 0 34-28 62-62 62z m0-283c-33 0-61 28-61 61 0 33 28 60 61 60 33 0 60-27 60-60 0-33-27-61-60-61z m0 100c-22 0-40-18-40-39 0-22 18-40 40-40 21 0 39 18 39 40 0 21-18 39-39 39z"/>
<glyph unicode="&#57394;" d="M288 0l-224 0c-35 0-64 28-64 63l0 386c0 35 28 63 63 63l224 0c35 0 63-28 63-63l0-382c1-1 1-3 1-4 0-35-28-63-63-63z m-225 491c-24 0-42-18-42-42l0-386c0-24 20-42 43-42l224 0c21 0 39 16 42 38-1 1-1 3-1 4l0 386c0 24-19 42-42 42z m223-235l-220 0c-6 0-11 4-11 11l0 171c0 7 5 11 11 11l220 0c6 0 11-4 11-11l0-171c0-7-5-11-11-11z m-209 21l198 0 0 151-198 0z m98-236c-50 0-92 41-92 91 0 50 42 92 92 92 50 0 92-42 92-92 0-50-42-91-92-91z m0 162c-38 0-70-32-70-71 0-38 32-70 70-70 38 0 70 32 70 70 0 39-32 71-70 71z m269-24c-3 0-6 1-8 3-4 5-4 11 0 15 73 74 73 192 0 265-4 4-4 11 0 15 5 4 11 4 15 0 81-81 81-212 0-295-2-2-4-3-7-3z m-48 49c-3 0-6 1-8 3-4 5-4 11 0 15 23 23 34 53 34 84 0 31-11 61-34 83-4 4-4 10 0 15 5 4 11 4 15 0 27-27 41-61 41-99 0-38-15-73-41-100-2 0-4-1-7-1z"/>
<glyph unicode="&#57395;" d="M366 0l-220 0c-35 0-63 28-63 63l0 386c0 35 28 63 63 63l220 0c35 0 63-28 63-63l0-386c0-35-28-63-63-63z m-220 491c-23 0-41-18-41-42l0-386c0-24 18-42 41-42l220 0c23 0 41 20 41 42l0 386c0 24-19 42-41 42z m-8-82l187 0 0-22-187 0z m212 0l24 0 0-22-24 0z m-212-84l187 0 0-21-187 0z m212 0l24 0 0-21-24 0z m-212-83l187 0 0-21-187 0z m212 0l24 0 0-21-24 0z m-112-130l36 0 0-21-36 0z"/>
</font>
</defs>
</svg>
